Часовой пояс: UTC + 3 часа




Начать новую тему Ответить на тему  [ 1 сообщение ] 
Автор Сообщение
СообщениеДобавлено: 2012-08-10 23:05 
Не в сети
Администратор
Администратор
Аватара пользователя
Раздал: 51.58 ТБ
Скачал: 620.08 ГБ
Ратио: 85.182


Зарегистрирован: 2010-11-09 02:24
Сообщения: 44854
Откуда: Земля Санникова
BBC: Мир природы. Кошки / The Natural World. The Cat Connetion
#777
Год выпуска: 2002
Страна: Великобритания
Жанр: Документальный
Продолжительность: 00:48:00
Перевод: Профессиональный (одноголосый)
Русские субтитры: нет
Режиссер: Ивонн Эллис \ Yvonne Ellis
Описание: Кошки - пожалуй, наиболее распространенное домашнее животное на нашей планете. Они живут во многих домах Англии, США, России и конечно же, Египта, где кошка с незапамятных времен считается священным животным. Однако мы настолько привыкли к этим созданиям, что не отдаем отчета в том, что кошки на протяжении миллионов лет эволюционировали в идеальных хищников. Как же вышло, что эти гордые свободолюбивые и в общем-то опасные животные так прижились среди людей? Можно объехать весь земной шар, чтобы убедиться в том, что практически в каждом уголке живут и дикие, и домашние представители этой породы. Новый фильм BBC посвящен обоим сторонам кошачьей жизни. Ведь каждая кошка, будучи милым, ласковым, общительным и игривым комком шерсти и любимцем семьи, тем не менее ни на миг не забывает своих хищных повадок и в любой момент способна превратиться в бесстрашного охотника и показать свою настоящую дикую сущность.
Качество: DVDRip
Формат: AVI
Видео кодек: DivX
Аудио кодек: MP3
Видео: DivX 5, 720x576, (4:3), 1900 kbps, 25 fps
Аудио 1: MP3, 64 kbps, 48 kHz, 1 ch [RUS]
Аудио 2: MP3, 96 kbps, 48 kHz, 2 ch [ENG]
1) Скачиваем VirtualDubMod.
2) Открываем видео файл [File -> Open video file -> имя_файла.avi]
3) Удаляем одну из дорожек [Streams -> Stream list -> "Выбираем дорожку" -> Disable -> OK]
4) Сохраняем файл [File -> Save As... -> "!!!Внизу выставляем вместо (Full processing mode) (Direct stream copy)!!!" -> "!!!Пишем другое имя!!!" -> Save]
5) Обязательно проверяем, ту ли дорогу удалили нет ли рассинхрона и т.д.
Примечание: Если сохранение длится более 2-4 минут, значит что-то не так: либо вы начали кодировать видео, либо что-то еще. Отмените сохранение и сделайте все сначала.
Убедительная просьба при сохранение создавать новый файл, т.к. если вы что-то сделаете не так, то можно будет все поправить, если же удалите/перезапишите исходник ничего уже не поделаешь!!!

Код:
Общее
Формат                                   : AVI
Формат/Информация                        : Audio Video Interleave
Размер файла                             : 720 Мбайт
Продолжительность                        : 48 м.
Общий поток                              : 2074 Кбит/сек
Программа кодирования                    : VirtualDubMod 1.5.10.2 (build 2540/release)
Библиотека кодирования                   : VirtualDubMod build 2540/release
Видео
Идентификатор                            : 0
Формат                                   : MPEG-4 Visual
Параметр BVOP формата                    : 1
Параметр QPel формата                    : Нет
Параметр GMC формата                     : Без точки перехода
Параметр матрицы формата                 : Default (H.263)
Режим смешивания                         : Сжатый битовый поток
Идентификатор кодека                     : DX50
Идентификатор кодека/Подсказка           : DivX 5
Продолжительность                        : 48 м.
Битрейт                                  : 1900 Кбит/сек
Ширина                                   : 720 пикселей
Высота                                   : 576 пикселей
Соотношение сторон                       : 4:3
Частота кадров                           : 25,000 кадров/сек
Стандарт вещания                         : PAL
Цветовое пространство                    : YUV
Субдискретизация насыщенности            : 4:2:0
Битовая глубина                          : 8 бит
Тип развёртки                            : Прогрессивная
Метод сжатия                             : С потерями
Бит/(Пиксели*Кадры)                      : 0.183
Размер потока                            : 660 Мбайт (92%)
Библиотека кодирования                   : DivX 2151
Аудио #1
Идентификатор                            : 1
Формат                                   : MPEG Audio
Версия формата                           : Version 1
Профиль формата                          : Layer 3
Идентификатор кодека                     : 55
Идентификатор кодека/Подсказка           : MP3
Продолжительность                        : 48 м.
Вид битрейта                             : Постоянный
Битрейт                                  : 64,0 Кбит/сек
Каналы                                   : 1 канал
Частота                                  : 48,0 КГц
Метод сжатия                             : С потерями
Размер потока                            : 22,1 Мбайт (3%)
Выравнивание                             : Соединение по промежуткам
Продолжительность промежутка             : 40  мс. (1,01 видеокадр)
Время предзагрузки промежутка            : 504  мс.
Библиотека кодирования                   : LAME3.99
Настройки программы                      : -m m -V 4 -q 0 -lowpass 16.5 -b 64
Аудио #2
Идентификатор                            : 2
Формат                                   : MPEG Audio
Версия формата                           : Version 1
Профиль формата                          : Layer 3
Идентификатор кодека                     : 55
Идентификатор кодека/Подсказка           : MP3
Продолжительность                        : 48 м.
Вид битрейта                             : Постоянный
Битрейт                                  : 96,0 Кбит/сек
Каналы                                   : 2 канала
Частота                                  : 48,0 КГц
Метод сжатия                             : С потерями
Размер потока                            : 33,3 Мбайт (5%)
Выравнивание                             : Соединение по промежуткам
Продолжительность промежутка             : 40  мс. (1,00 видеокадр)
Время предзагрузки промежутка            : 504  мс.






У вас нет необходимых прав для просмотра вложений в этом сообщении.


Вернуться к началу
 Профиль  
Ответить с цитатой  
  • Торрент
Автор: oartemka178 Хэш: ---
Добавлен: 2018-09-25 12:43 Приватный: Нет (DHT включён)
Статус:
---
Размер: 719.99 МБ (754 968 576 байт)
Изменил:
---
Скачали: 0 (Раздающих: 0%)
Причина:
---
Здоровье: 0%
Сидеров: 0 Личеров: 0
Скорость раздачи: 0 байт/сек Скорость скачивания: 0 байт/сек
Последний сидер: Нет Последний личер: Нет
Для скачивания торрента необходимо зарегистрироваться или войти на трекер.
Показать сообщения за:  Поле сортировки  
Начать новую тему Ответить на тему  [ 1 сообщение ] 

Часовой пояс: UTC + 3 часа


Кто сейчас на конференции

Сейчас этот форум просматривают: нет зарегистрированных пользователей и гости: 1


Вы не можете начинать темы
Вы не можете отвечать на сообщения
Вы не можете редактировать свои сообщения
Вы не можете удалять свои сообщения
Вы не можете добавлять вложения

Найти:
Перейти:  
cron
cron