Часовой пояс: UTC + 3 часа




Начать новую тему Ответить на тему  [ 1 сообщение ] 
Автор Сообщение
СообщениеДобавлено: 2019-10-07 12:12 
Не в сети
Администратор
Администратор
Аватара пользователя
Раздал: 80 КБ
Скачал: 0 байт
Ратио: Seed.


Зарегистрирован: 2010-01-16 12:34
Сообщения: 303
BBC: Инопланетяне. Мозговой штурм / Aliens: The Big Think


#777

Информация о фильме
Название: Инопланетяне. Мозговой штурм
Оригинальное название: Aliens: The Big Think
Год выхода: 2016
Жанр: Документальный, космос

Режиссер: Том Хьюитсон

О фильме:
Думаете, охота на инопланетян - это просто фантастика? Вы ошибаетесь. Задумайтесь на минуту, одни ли мы во Вселенной? Пожалуй, это самый важный вопрос, что мы задавали. Разумно предположить, что где-то в космосе есть мощная сверхчеловеческая цивилизация. Возможно они уже миллионы лет наблюдают за Землёй. Завершив долгую и блестящую карьеру в авангарде космологии, английский астроном Мартин Риз (Martin Rees) занялся поиском внеземной жизни. И сейчас, с помощью архивов BBC, Мартин перенесёт нас в свой мир. Думаете охота на пришельцев это научная фантастика? Вы ошибаетесь. Это динамичная новейшая область современной науки, где бушуют жаркие споры. Знакомясь с разными мнениями, мы доберёмся до пределов нашего понимания Вселенной и места в ней человека. Это путешествие приведёт к ошеломляющему выводу. Наше представление об инопланетянах ошибочно и мы должны искать не органических существ, а ......

Семпл

Страна: Великобритания
Студия: British Broadcasting Corporation (BBC)
Продолжительность: 00:50:08
Перевод: Профессиональный (одноголосый закадровый) Видеофильм ТВ

Файл
Кодек: AVC/H.264
Качество: DVB
Видео: 720x576@1047x576 (16:9) AVC (H.264) Main@L3.0, ~ 1964 kbps, 25fps
Звук: Русский 48 kHz, MPEG Layer 2, 2 ch, ~192.00 kbps avg

Complete name : F:НаладкиSD-фильмыИнопланетяне_ Мозговой штурм.ts
Format : MPEG-TS
File size : 810 MiB
Duration : 50 min 8 s
Overall bit rate mode : Variable
Overall bit rate : 2 259 kb/s

Video
ID : 401 (0x191)
Menu ID : 2608 (0xA30)
Format : AVC
Format/Info : Advanced Video Codec
Format profile : Main@L3
Format settings : CABAC / 4 Ref Frames
Format settings, CABAC : Yes
Format settings, Reference : 4 frames
Codec ID : 27
Duration : 50 min 8 s
Bit rate : 1 954 kb/s
Width : 720 pixels
Height : 576 pixels
Display aspect ratio : 16:9
Frame rate : 25.000 FPS
Standard : Component
Color space : YUV
Chroma subsampling : 4:2:0
Bit depth : 8 bits
Scan type : Interlaced
Scan type, store method : Separated fields
Scan order : Top Field First
Bits/(Pixel*Frame) : 0.188
Stream size : 701 MiB (86%)
Color range : Limited
Color primaries : BT.601 PAL
Transfer characteristics : BT.470 System B/G
Matrix coefficients : BT.470 System B/G

Audio
ID : 402 (0x192)
Menu ID : 2608 (0xA30)
Format : MPEG Audio
Format version : Version 1
Format profile : Layer 2
Codec ID : 3
Duration : 50 min 8 s
Bit rate mode : Constant
Bit rate : 192 kb/s
Channel(s) : 2 channels
Sampling rate : 48.0 kHz
Frame rate : 41.667 FPS (1152 SPF)
Compression mode : Lossy
Delay relative to video : -40 ms
Stream size : 68.9 MiB (8%)
Language : Russian




Релиз от: kyba


У вас нет необходимых прав для просмотра вложений в этом сообщении.


Вернуться к началу
 Профиль  
Ответить с цитатой  
  • Торрент
Автор: Admin Хэш: ---
Добавлен: 2019-10-07 12:12 Приватный: Нет (DHT включён)
Статус: Проверен
Размер: 810.41 МБ (849 772 220 байт)
Изменил:
---
Скачали: 555 (Раздающих: 0%)
Причина:
---
Здоровье: 100%
Сидеров: 75 Личеров: 9
Скорость раздачи: 0 байт/сек Скорость скачивания: 0 байт/сек
Последний сидер: 3 дня 11 часов 22 минуты 28 секунд назад Последний личер: 3 дня 11 часов 22 минуты 28 секунд назад
Для скачивания торрента необходимо зарегистрироваться или войти на трекер.
Показать сообщения за:  Поле сортировки  
Начать новую тему Ответить на тему  [ 1 сообщение ] 

Часовой пояс: UTC + 3 часа


Кто сейчас на конференции

Сейчас этот форум просматривают: нет зарегистрированных пользователей и гости: 1


Вы не можете начинать темы
Вы не можете отвечать на сообщения
Вы не можете редактировать свои сообщения
Вы не можете удалять свои сообщения
Вы не можете добавлять вложения

Найти:
Перейти:  
cron
cron