Часовой пояс: UTC + 3 часа




Начать новую тему Ответить на тему  [ 1 сообщение ] 
Автор Сообщение
СообщениеДобавлено: 2019-10-10 20:27 
Не в сети
Администратор
Администратор
Аватара пользователя
Раздал: 80 КБ
Скачал: 0 байт
Ратио: Seed.


Зарегистрирован: 2010-01-16 12:34
Сообщения: 354
ВВС: Правда о том, как быть в форме / The Truth About Getting fit


#777

Информация о фильме
Название: Правда о том, как быть в форме
Оригинальное название: The Truth About Getting fit
Год выхода: 2018
Страна: Великобритания
Студия: BBC Studios
Продолжительность: 00:49:21
Перевод: Профессиональный (двухголосый закадровый) Видеофильм ТВ
Жанр: Документальный

Режиссер: Кейт Прингл

В ролях: Майкл Мосли

О фильме:
Какое минимальное количество физических упражнений нужно делать, чтобы прожить долгую и здоровую жизнь? Достаточно ли заниматься 2 минуты в неделю? Тяжелые или легкие веса использовать для наращивания мышечной массы? Может ли физическая активность улучшить психологическое состояние? Майкл Мосли объединяется с учеными, чьи последние исследования превращают общеизвестные знания о фитнесе с ног на голову расскажет, как сохранить физическую форму с умом!



Семпл

Файл
Кодек: AVC/H.264
Качество: DVB
Видео: 720x576@1047x576 (16:9) AVC (H.264) Main@L3.0, ~ 1736 kbps, 25fps
Звук: Русский 48 kHz, MPEG Layer 2, 2 ch, ~192.00 kbps avg

Семпл

Complete name : F:НаладкиSD-фильмыПравда о том, как быть в форме.ts
Format : MPEG-TS
File size : 717 MiB
Duration : 49 min 21 s
Overall bit rate mode : Variable
Overall bit rate : 2 030 kb/s

Video
ID : 401 (0x191)
Menu ID : 2608 (0xA30)
Format : AVC
Format/Info : Advanced Video Codec
Format profile : Main@L3
Format settings : CABAC / 4 Ref Frames
Format settings, CABAC : Yes
Format settings, Reference : 4 frames
Codec ID : 27
Duration : 49 min 21 s
Bit rate : 1 736 kb/s
Width : 720 pixels
Height : 576 pixels
Display aspect ratio : 16:9
Frame rate : 25.000 FPS
Standard : Component
Color space : YUV
Chroma subsampling : 4:2:0
Bit depth : 8 bits
Scan type : Interlaced
Scan type, store method : Separated fields
Scan order : Top Field First
Bits/(Pixel*Frame) : 0.167
Stream size : 613 MiB (86%)
Color range : Limited
Color primaries : BT.601 PAL
Transfer characteristics : BT.470 System B/G
Matrix coefficients : BT.470 System B/G

Audio
ID : 402 (0x192)
Menu ID : 2608 (0xA30)
Format : MPEG Audio
Format version : Version 1
Format profile : Layer 2
Codec ID : 3
Duration : 49 min 21 s
Bit rate mode : Constant
Bit rate : 192 kb/s
Channel(s) : 2 channels
Sampling rate : 48.0 kHz
Frame rate : 41.667 FPS (1152 SPF)
Compression mode : Lossy
Delay relative to video : -80 ms
Stream size : 67.8 MiB (9%)
Language : Russian


Релиз от: kyba


У вас нет необходимых прав для просмотра вложений в этом сообщении.


Вернуться к началу
 Профиль  
Ответить с цитатой  
  • Торрент
Автор: Admin Хэш: ---
Добавлен: 2019-10-10 20:27 Приватный: Нет (DHT включён)
Статус: Проверен
Размер: 716.81 МБ (751 633 964 байт)
Изменил:
---
Скачали: 13568 (Раздающих: 0%)
Причина:
---
Здоровье: 100%
Сидеров: 779 Личеров: 11
Скорость раздачи: 0 байт/сек Скорость скачивания: 0 байт/сек
Последний сидер: 23 дня 18 часов 59 минут 2 секунды назад Последний личер: 23 дня 18 часов 59 минут 2 секунды назад
Для скачивания торрента необходимо зарегистрироваться или войти на трекер.
Показать сообщения за:  Поле сортировки  
Начать новую тему Ответить на тему  [ 1 сообщение ] 

Часовой пояс: UTC + 3 часа


Кто сейчас на конференции

Сейчас этот форум просматривают: нет зарегистрированных пользователей и гости: 1


Вы не можете начинать темы
Вы не можете отвечать на сообщения
Вы не можете редактировать свои сообщения
Вы не можете удалять свои сообщения
Вы не можете добавлять вложения

Найти:
Перейти:  
cron