Часовой пояс: UTC + 3 часа




Начать новую тему Ответить на тему  [ 1 сообщение ] 
Автор Сообщение
СообщениеДобавлено: 2019-11-15 21:51 
Не в сети
Администратор
Администратор
Аватара пользователя
Раздал: 1.22 ТБ
Скачал: 2.7 ГБ
Ратио: 460.903


Зарегистрирован: 2014-03-16 00:45
Сообщения: 2790
Побег из джунглей / Boonie Bears: Blast Into the Past


#777

Информация о фильме
Название: Побег из джунглей
Оригинальное название: Boonie Bears: Blast Into the Past
Год выхода: 2019
Страна: Китай
Студия: Fantawild Pictures
Продолжительность: 01:29:28
Перевод: Дублированный | iTunes
Жанр: Мультфильм, комедия, фантастика

Режиссер: Линь Хуэйда, Дин Лян

В ролях: Чжан Вэй, Чжан Бинцзюнь, Тань Сяо, Сун Цзуэр, Ван Даньцин, Мэн Юйтянь

О фильме:
Во время экскурсии в древнюю пещеру медведи Брайр и Брэмбл и их друг-дровосек Вик внезапно оказываются в настоящем доисторическом прошлом. Чтобы вернуться назад, им придется совершить большое путешествие во времени и пережить невероятные приключения: столкнуться с огромными хищными птицами, гигантскими черепахами и многочисленными неведомыми и опасными обитателями первобытных джунглей. Но главное - найти новых друзей и дорогу домой!



Файл
Качество: WEB-DL 1080p
Контейнер: MKV
Видео: MPEG-4 AVC, 1920x804, 4415 Kbps, 24.000 fps
Аудио: Russian: AC3, 6 ch, 48 kHz, 384 kbps - DUB, iTunes
Субтитры: Нет

Релиз от:


General
Unique ID : 176356767762693807419750230798945143520 (0x84AD13F758991B8C929A6808B6BACAE0)
Complete name : POBEG_iz_JUNGLEJ_2019_WEB-DL_1080p-BLUEBIRD.mkv
Format : Matroska
Format version : Version 4 / Version 2
File size : 3.06 GiB
Duration : 1 h 29 min
Overall bit rate : 4 897 kb/s
Movie name : POBEG_iz_JUNGLEJ_2019_WEB-DL_1080p-BLUEBIRD
Encoded date : UTC 2019-11-13 19:28:55
Writing application : mkvmerge v6.9.1 ('Blue Panther') 32bit built on Apr 18 2014 18:15:44
Writing library : libebml v1.3.0 + libmatroska v1.4.1
Cover : Yes
Attachments : cover.png

Video
ID : 1
Format : AVC
Format/Info : Advanced Video Codec
Format profile : High@L4
Format settings, CABAC : Yes
Format settings, RefFrames : 5 frames
Codec ID : V_MPEG4/ISO/AVC
Duration : 1 h 29 min
Bit rate : 4 415 kb/s
Width : 1 920 pixels
Height : 804 pixels
Display aspect ratio : 2.40:1
Frame rate mode : Constant
Frame rate : 24.000 FPS
Color space : YUV
Chroma subsampling : 4:2:0
Bit depth : 8 bits
Scan type : Progressive
Bits/(Pixel*Frame) : 0.119
Stream size : 2.76 GiB (90%)
Language : English
Default : Yes
Forced : No
Color range : Limited
Color primaries : BT.709
Transfer characteristics : BT.709
Matrix coefficients : BT.709

Audio
ID : 2
Format : AC-3
Format/Info : Audio Coding 3
Format settings, Endianness : Big
Codec ID : A_AC3
Duration : 1 h 29 min
Bit rate mode : Constant
Bit rate : 384 kb/s
Channel(s) : 6 channels
Channel positions : Front: L C R, Side: L R, LFE
Sampling rate : 48.0 kHz
Frame rate : 31.250 FPS (1536 SPF)
Bit depth : 16 bits
Compression mode : Lossy
Stream size : 246 MiB (8%)
Title : [DUB] DD 5.1 @ 384 kbps (iTunes)
Language : Russian
Service kind : Complete Main
Default : Yes
Forced : No

Menu
00:00:00.000 : en:Глава 1
00:08:48.416 : en:Глава 2
00:17:45.374 : en:Глава 3
00:26:24.249 : en:Глава 4
00:35:01.040 : en:Глава 5
00:43:11.415 : en:Глава 6
00:51:37.706 : en:Глава 7
00:59:57.747 : en:Глава 8
01:08:30.830 : en:Глава 9
01:17:00.163 : en:Глава 10


У вас нет необходимых прав для просмотра вложений в этом сообщении.


Вернуться к началу
 Профиль  
Ответить с цитатой  
  • Торрент
Автор: Consultants Хэш: ---
Добавлен: 2019-11-15 21:51 Приватный: Нет (DHT включён)
Статус: Проверен
Размер: 3.06 ГБ (3 285 682 907 байт)
Изменил:
---
Скачали: 1501 (Раздающих: 0%)
Причина:
---
Здоровье: 100%
Сидеров: 131 Личеров: 8
Скорость раздачи: 0 байт/сек Скорость скачивания: 0 байт/сек
Последний сидер: 1 месяц 19 дней 15 часов 52 минуты 48 секунд назад Последний личер: 1 месяц 19 дней 15 часов 52 минуты 48 секунд назад
Для скачивания торрента необходимо зарегистрироваться или войти на трекер.
Показать сообщения за:  Поле сортировки  
Начать новую тему Ответить на тему  [ 1 сообщение ] 

Часовой пояс: UTC + 3 часа


Кто сейчас на конференции

Сейчас этот форум просматривают: нет зарегистрированных пользователей и гости: 2


Вы не можете начинать темы
Вы не можете отвечать на сообщения
Вы не можете редактировать свои сообщения
Вы не можете удалять свои сообщения
Вы не можете добавлять вложения

Найти:
Перейти:  
Переместиться наверх
 Главная |  Список форумов |   Time : 0.083s | 17 Queries | GZIP : Off |
tracker_cron