Часовой пояс: UTC + 3 часа




Начать новую тему Ответить на тему  [ 1 сообщение ] 
Автор Сообщение
СообщениеДобавлено: 2012-01-19 22:11 
Не в сети
Хранители
Хранители
Аватара пользователя
Раздал: 3.51 ГБ
Скачал: 1.74 ГБ
Ратио: 2.024


Зарегистрирован: 2011-11-08 20:09
Сообщения: 12155
Какие наши годы. Выпуск 4. 1962 год
#777
Год выпуска: 2011
Жанр: Документальный
Продолжительность: 01:21:00
Режиссер: Леонид Парфенов
В ролях: Леонид Парфёнов, Татьяна Арно.
Описание: Первый канал продолжает экскурсионные туры в прошлое нашей страны с опытными и интересными гидами – Леонидом Парфеновым и Татьяной Арно. "Какие наши годы!" - это не рассказ, а глубокое погружение в то время, "тактильный контакт", позволяющий пережить ту атмосферу и те события заново.
Страна настраивала свои приемники на радиостанцию "Юность", отмечала 150-летнюю годовщину Бородинского сражения, смотрела "Гусарскую балладу", слушала сладкоголосого Робертино Лоретти и пребывала в полном неведении по поводу расстрела демонстрации в Новочеркасске.
В том же году состоялась скандальная выставка современного искусства в Манеже, ушла из жизни ослепительная Мерилин Монро и разразился Карибский кризис, поставивший планету на грань ядерной войны, журнал "Новый мир" опубликовал "Один день Ивана Денисовича" А.Солженицына, на прилавках советских магазинов появилось молоко в бумажных треугольных пакетах, а на улицах, как грибы после дождя, выросли многочисленные "хрущобы".
В 62-м в Новочеркасске солдаты расстреляли демонстрацию рабочих, протестовавших против повышения цен. В студии тоже прогремят выстрелы из автоматов, въедут танки, а о демонстрациях протеста расскажет участник демонстрации 62-ого Николай Степанов и сегодняшняя защитница химкинского леса Евгения Чирикова.
В гости к программе на этот раз пришли Лариса Голубкина ("Гусарская баллада"), Эвилина Хромченко ("Мерилин Монро"), Борис Жутовский ("Выставка в Манеже"), Борис Акунин ("Один день Ивана Денисовича"), Иосиф Бакштейн ("Молоко в пакетах"), Петр Налич ("Робертино Лоретти"), Гарик Харламов ("Гусарская баллада") и др.


Доп. информация: Релиз "Кинозал.ТВ"


Качество: SATRip
Формат: AVI
Видео кодек: XviD
Аудио кодек: MP3
Видео: XVID, 1329 Kbps, 704х528, 4/3, 25.000 fps, 0.143
Аудио: MP3, 128 Kbps, 2 channels, 44.1 KHz




Format : AVI
Format/Info : Audio Video Interleave
File size : 854 MiB
Duration : 1h 21mn
Overall bit rate : 1467 Kbps
Writing library : VirtualDub build 32842/release
Video
Format : MPEG-4 Visual
Format profile : Streaming Video@L1
Format settings, BVOP : Yes
Format settings, QPel : No
Format settings, GMC : No warppoints
Format settings, Matrix : Default
Muxing mode : Packet Bitstream
Codec ID : XVID
Codec ID/Hint : XviD
Duration : 1h 21mn
Bit rate : 1329 Kbps
Width : 704 pixels
Height : 528 pixels
Display aspect ratio : 4/3
Frame rate : 25.000 fps
Resolution : 8 bits
Colorimetry : 4:2:0
Scan type : Progressive
Bits/(Pixel*Frame) : 0.143
Stream size : 774 MiB (91%)
Writing library : XviD 58
Audio
Format : MPEG Audio
Format version : Version 1
Format profile : Layer 3
Codec ID : 55
Codec ID/Hint : MP3
Duration : 1h 21mn
Bit rate mode : Constant
Bit rate : 128 Kbps
Channel(s) : 2 channels
Sampling rate : 44.1 KHz
Resolution : 16 bits
Stream size : 74.5 MiB (9%)
Alignment : Split accross interleaves
Interleave, duration : 40 ms (1.00 video frame)
Interleave, preload duration : 500 ms





Не забывайте говорить "спасибо".


19.02.11 в 14.24 по Москве файл был заменён, на "не кривой". Извините за неудобства.


У вас нет необходимых прав для просмотра вложений в этом сообщении.


Вернуться к началу
 Профиль  
Ответить с цитатой  
  • Торрент
Автор: Релизер Хэш: ---
Добавлен: 2018-09-25 12:42 Приватный: Нет (DHT включён)
Статус:
---
Размер: 854.22 МБ (895 709 506 байт)
Изменил:
---
Скачали: 0 (Раздающих: 0%)
Причина:
---
Здоровье: 0%
Сидеров: 0 Личеров: 0
Скорость раздачи: 0 байт/сек Скорость скачивания: 0 байт/сек
Последний сидер: Нет Последний личер: Нет
Для скачивания торрента необходимо зарегистрироваться или войти на трекер.
Показать сообщения за:  Поле сортировки  
Начать новую тему Ответить на тему  [ 1 сообщение ] 

Часовой пояс: UTC + 3 часа


Кто сейчас на конференции

Сейчас этот форум просматривают: нет зарегистрированных пользователей и гости: 1


Вы не можете начинать темы
Вы не можете отвечать на сообщения
Вы не можете редактировать свои сообщения
Вы не можете удалять свои сообщения
Вы не можете добавлять вложения

Найти:
Перейти:  
cron
cron