Часовой пояс: UTC + 3 часа




Начать новую тему Ответить на тему  [ 1 сообщение ] 
Автор Сообщение
СообщениеДобавлено: 2014-06-13 16:41 
Не в сети
Администратор
Администратор
Аватара пользователя
Раздал: 1.22 ТБ
Скачал: 2.7 ГБ
Ратио: 460.903


Зарегистрирован: 2014-03-16 00:45
Сообщения: 2795
Апокалипсис / Люди


#777

Год выпуска: 2012
Страна: Россия
Жанр: Документальный
Продолжительность: 00:34:22
Перевод: Не требуется

Ведущий: Владимир Марамышкин

Описание: Верим мы или нет в апокалипсис, но до обещанного конца света 2012 года осталось совсем мало времени. Пора предусмотреть собственный путь спасения.
Откуда ждать беды? Каким будет конец света? Опасность может прийти в виде огромного метеорита, инопланетного десанта и смертельных вирусов.
И тогда Земля может стать непригодной для жизни... Но есть ли способы избежать планетарной катастрофы?
Съемочная группа документального цикла "Апокалипсис" – это журналисты, первые из всех получившие достоверную информацию о том, где строят бункеры, которые спасут землян от неминуемой гибели.
Ведущий программы Владимир Марамышкин рассмотрит разные точки зрения, проведет опыты и учтет важные факторы, которые могут указать на то, что жизнь на планете Земля под угрозой.

В выпуске: Процесс вырождения человечества уже начался! То, что мы едим, чем дышим, что передаем по наследству не делает нас сильнее – оно убивает…

Качество: SATRip
Формат: AVI
Видео кодек: DivX
Аудио кодек: MP3
Видео: 720x400 (1.80:1), 25 fps, DivX Codec 6.8.5/6.9.1 ~1501 kbps avg, 0.21 bit/pixe
Аудио: 48 kHz, MPEG Layer 3, 2 ch, ~128.00 kbps avg
MI
ОбщееПолное имя : E:\Downloads\55\Apokalypse.Ludi.2012.SATRip.aviФормат : AVIФормат/Информация : Audio Video InterleaveРазмер файла : 406 МбайтПродолжительность : 34 м.Общий поток : 1638 Кбит/секПрограмма кодирования : VirtualDubMod 1.5.10.3 (build 2550/release)Библиотека кодирования : VirtualDub build 24442/releaseПравообладатель : Shuriman
ВидеоИдентификатор : 0Формат : MPEG-4 VisualПараметр BVOP формата : 1Параметр QPel формата : НетПараметр GMC формата : Без точки переходаПараметр матрицы формата : Default (H.263)Режим смешивания : Сжатый битовый потокИдентификатор кодека : DX50Идентификатор кодека/Подсказка : DivX 5Продолжительность : 34 м.Битрейт : 1501 Кбит/секШирина : 720 пикс.Высота : 400 пикс.Соотношение сторон : 16:9Частота кадров : 25,000 кадр/секЦветовое пространство : YUVПодвыборка цветности : 4:2:0Битовая глубина : 8 битТип развёртки : ПрогрессивнаяМетод сжатия : С потерямиБит/(Пиксели*Кадры) : 0.208Размер потока : 372 Мбайт (92%)Библиотека кодирования : DivX 6.8.5 (UTC 2009-08-20)
АудиоИдентификатор : 1Формат : MPEG AudioВерсия формата : Version 1Профиль формата : Layer 3Режим : Joint stereoРасширение режима : MS StereoИдентификатор кодека : 55Идентификатор кодека/Подсказка : MP3Продолжительность : 34 м.Вид битрейта : ПостоянныйБитрейт : 128 Кбит/секКаналы : 2 каналаЧастота : 48,0 КГцМетод сжатия : С потерямиРазмер потока : 31,7 Мбайт (8%)Выравнивание : Разделение по промежуткамПродолжительность промежутка : 40 мс. (1,00 видеокадр)Время предзагрузки промежутка : 500 ms


Релиз: Shuriman

Скриншоты




У вас нет необходимых прав для просмотра вложений в этом сообщении.


Вернуться к началу
 Профиль  
Ответить с цитатой  
  • Торрент
Автор: Consultants Хэш: ---
Добавлен: 2014-06-13 16:41 Приватный: Нет (DHT включён)
Статус:
---
Размер: 405.64 МБ (425 346 214 байт)
Изменил:
---
Скачали: 0 (Раздающих: 0%)
Причина:
---
Здоровье: 0%
Сидеров: 0 Личеров: 0
Скорость раздачи: 0 байт/сек Скорость скачивания: 0 байт/сек
Последний сидер: Нет Последний личер: Нет
Для скачивания торрента необходимо зарегистрироваться или войти на трекер.
Показать сообщения за:  Поле сортировки  
Начать новую тему Ответить на тему  [ 1 сообщение ] 

Часовой пояс: UTC + 3 часа


Кто сейчас на конференции

Сейчас этот форум просматривают: нет зарегистрированных пользователей и гости: 3


Вы не можете начинать темы
Вы не можете отвечать на сообщения
Вы не можете редактировать свои сообщения
Вы не можете удалять свои сообщения
Вы не можете добавлять вложения

Найти:
Перейти:  
cron
Переместиться наверх
 Главная |  Список форумов |   Time : 0.079s | 15 Queries | GZIP : Off |
tracker_cron