Часовой пояс: UTC + 3 часа




Начать новую тему Ответить на тему  [ 1 сообщение ] 
Автор Сообщение
СообщениеДобавлено: 2014-04-20 19:15 
Не в сети
Администратор
Администратор
Аватара пользователя
Раздал: 51.58 ТБ
Скачал: 620.08 ГБ
Ратио: 85.182


Зарегистрирован: 2010-11-09 02:24
Сообщения: 44887
Откуда: Земля Санникова
Ходячие мертвецы + Rammstein - Du hast / Walking Dead & Rammstein - Du hast
#777
Год выпуска: 2013
Страна: Россия
Жанр: Пародия
Продолжительность: 00:04:19
Перевод: Нет и не требуется
Русские субтитры: нет
Режиссер видеомонтажа: Paul Mihalev
Описание: Видеоролик на тему Walking Dead в сопровождении группы Rammstein, песня Du hast. Сюжет о том, как приехать в город зомби на лошади, а уехать на "Ягуаре".
Доп. информация: Не оригинальный сюжет.
качество: HDRip
формат: MP4
видеокодек: AVC
аудиокодек: AAC
Видео: 768х576, 25fps, 3233 kbps
Аудио: 48000Hz, 161 kbps, 2 channel, stereo
\WD&Rammstein- Du hast.mp4
Format : MPEG-4
Format profile : Base Media
Codec ID : isom
File size : 99.9 MiB
Duration : 4mn 19s
Overall bit rate mode : Variable
Overall bit rate : 3 233 Kbps
Encoded date : UTC 2013-02-27 13:46:50
Tagged date : UTC 2013-02-27 13:46:50
Video
ID : 2
Format : AVC
Format/Info : Advanced Video Codec
Format profile : Baseline@L3.1
Format settings, CABAC : No
Format settings, ReFrames : 1 frame
Format settings, GOP : M=1, N=10
Muxing mode : Container profile=Baseline@3.0
Codec ID : avc1
Codec ID/Info : Advanced Video Coding
Duration : 4mn 19s
Bit rate mode : Variable
Bit rate : 3 067 Kbps
Maximum bit rate : 4 500 Kbps
Width : 768 pixels
Height : 576 pixels
Display aspect ratio : 4:3
Frame rate mode : Constant
Frame rate : 25.000 fps
Color space : YUV
Chroma subsampling : 4:2:0
Bit depth : 8 bits
Scan type : Progressive
Bits/(Pixel*Frame) : 0.277
Stream size : 94.8 MiB (95%)
Language : English
Audio
ID : 1
Format : AAC
Format/Info : Advanced Audio Codec
Format profile : LC
Codec ID : 40
Duration : 4mn 19s
Bit rate mode : Constant
Bit rate : 161 Kbps
Channel(s) : 2 channels
Channel positions : Front: L R
Sampling rate : 48.0 KHz
Compression mode : Lossy
Stream size : 4.99 MiB (5%)
Language : English




У вас нет необходимых прав для просмотра вложений в этом сообщении.


Вернуться к началу
 Профиль  
Ответить с цитатой  
  • Торрент
Автор: oartemka178 Хэш: ---
Добавлен: 2014-04-20 19:15 Приватный: Нет (DHT включён)
Статус:
---
Размер: 99.94 МБ (104 796 013 байт)
Изменил:
---
Скачали: 0 (Раздающих: 0%)
Причина:
---
Здоровье: 0%
Сидеров: 0 Личеров: 0
Скорость раздачи: 0 байт/сек Скорость скачивания: 0 байт/сек
Последний сидер: Нет Последний личер: Нет
Для скачивания торрента необходимо зарегистрироваться или войти на трекер.
Показать сообщения за:  Поле сортировки  
Начать новую тему Ответить на тему  [ 1 сообщение ] 

Часовой пояс: UTC + 3 часа


Кто сейчас на конференции

Сейчас этот форум просматривают: нет зарегистрированных пользователей и гости: 1


Вы не можете начинать темы
Вы не можете отвечать на сообщения
Вы не можете редактировать свои сообщения
Вы не можете удалять свои сообщения
Вы не можете добавлять вложения

Найти:
Перейти:  
Переместиться наверх
 Главная |  Список форумов |   Time : 0.086s | 15 Queries | GZIP : Off |
tracker_cron