Часовой пояс: UTC + 3 часа




Начать новую тему Ответить на тему  [ 1 сообщение ] 
Автор Сообщение
СообщениеДобавлено: 2018-10-17 19:42 
Не в сети
Администратор
Администратор
Аватара пользователя
Раздал: 51.58 ТБ
Скачал: 620.08 ГБ
Ратио: 85.182


Зарегистрирован: 2010-11-09 02:24
Сообщения: 44858
Откуда: Земля Санникова
Калигула / Caligola


#777

Информация о фильме
Название: Калигула
Оригинальное название: Caligula
Год выпуска: 1979
Страна: США, Италия
Студия: Felix Cinematografica, Penthouse Films International
Продолжительность: 02:35:29
Перевод: Профессиональный многоголосый, профессиональный двухголосый
Жанр: Эротика, драма, история

Режиссер: Тинто Брасс, Боб Гуччионе, Джанкарло Луи

В ролях:
Малкольм МакДауэлл, Тереза Энн Савой, Гуидо Маннари, Джон Гилгуд, Питер О`Тул, Джанкарло Бадесси, Бруно Бриве, Адриана Асти, Леопольдо Триесте, Паоло Боначелли, Джон Стайнер, Мирелла Д`Анджело, Донато Пласидо, Лори Вагнер, Хелен Миррен

О фильме :
Высокобюджетный исторический фильм по сценарию американского писателя Гора Видала о правлении древнеримского императора Калигулы, вошедшего в историю беспримерной жестокостью, коварством и пороками. Режиссер Тинто Брасс откровенно показал то, что стояло за фасадом тяжело агонизировавшей Римской империи, некогда великой и непобедимой. Скандально выставлены на показ все подробности жестокого и извращенного царствования Калигулы: бесстыдное сексуальное влечение к родной сестре, женитьба на самой развратной из римских проституток, изобретательно-утонченные в своем зверстве репрессии против тех, кто мог бы встать у него на пути. Таланты Малкольма Макдауэлла и Питера О`Тула в сочетании с великолепной игрой всего актерского ансамбля и участие ослепительных красавиц журнала «Penthouse» сделали этот непревзойденный фильм настоящим шедевром киноэкрана.



18+

Файл
Формат: MKV
Качество: HDRip-AVC
Видео: MPEG-4 AVC, 784x424, ~ 835 Кбит/с
Аудио #1: AAC-HE, 2 ch, ~ 76 Кбит/с | MVO, «Екатеринбург Арт»
Аудио #2: AAC-HE, 2 ch, ~ 76 Кбит/с | DVO, «П.Гланц и И.Королева»
Субтитры: Русские

Общее
Уникальный идентификатор : 199885161991877541979731896117527790676 (0x96607B5D443E6E3A970D98FFA2474454)
Полное имя : D:MOVIESCaligula.1979.ExKinoRay.mkv
Формат : Matroska
Версия формата : Version 4 / Version 2
Размер файла : 1,07 Гбайт
Продолжительность : 2 ч. 35 м.
Общий поток : 989 Кбит/сек
Дата кодирования : UTC 2018-10-17 03:58:16
Программа кодирования : mkvmerge v15.0.0 ('Duel with the Devil') 64-bit
Библиотека кодирования : libebml v1.3.5 + libmatroska v1.4.5

Видео
Идентификатор : 1
Формат : AVC
Формат/Информация : Advanced Video Codec
Профиль формата : High@L4.1
Параметр CABAC формата : Да
Параметр RefFrames формата : 12 кадров
Идентификатор кодека : V_MPEG4/ISO/AVC
Продолжительность : 2 ч. 35 м.
Битрейт : 835 Кбит/сек
Ширина : 784 пикселя
Высота : 424 пикселя
Соотношение сторон : 1,85:1
Режим частоты кадров : Постоянный
Частота кадров : 24,000 кадра/сек
Цветовое пространство : YUV
Субдискретизация насыщенности : 4:2:0
Битовая глубина : 8 бит
Тип развёртки : Прогрессивная
Бит/(Пиксели*Кадры) : 0.105
Размер потока : 929 Мбайт (84%)
Библиотека кодирования : x264 core 152 r2851kMod ba24899
Настройки программы : cabac=1 / ref=12 / deblock=1:-3:-2 / analyse=0x3:0x133 / me=umh / subme=10 / psy=1 / fade_compensate=0.00 / psy_rd=1.00:0.17 / mixed_ref=1 / me_range=32 / chroma_me=1 / trellis=2 / 8x8dct=1 / cqm=0 / deadzone=21,11 / fast_pskip=0 / chroma_qp_offset=-3 / threads=6 / lookahead_threads=1 / sliced_threads=0 / nr=0 / decimate=0 / interlaced=0 / bluray_compat=0 / constrained_intra=0 / bframes=11 / b_pyramid=2 / b_adapt=2 / b_bias=0 / direct=3 / weightb=1 / open_gop=0 / weightp=2 / keyint=240 / keyint_min=23 / scenecut=40 / intra_refresh=0 / rc_lookahead=40 / rc=2pass / mbtree=1 / bitrate=835 / ratetol=1.0 / qcomp=0.60 / qpmin=0 / qpmax=69 / qpstep=4 / cplxblur=20.0 / qblur=0.5 / ip_ratio=1.40 / aq=3:1.00
Default : Да
Forced : Нет

Аудио #1
Идентификатор : 2
Формат : AAC
Формат/Информация : Advanced Audio Codec
Профиль формата : HE-AAC / LC
Идентификатор кодека : A_AAC
Продолжительность : 2 ч. 35 м.
Битрейт : 76,0 Кбит/сек
Каналы : 2 канала
Расположение каналов : Front: L R
Частота : 48,0 КГц / 24,0 КГц
Частота кадров : 23,438 кадра/сек (1024 SPF)
Метод сжатия : С потерями
Задержка видео : 31 мс.
Размер потока : 84,5 Мбайт (8%)
Язык : Russian
Default : Да
Forced : Нет

Аудио #2
Идентификатор : 3
Формат : AAC
Формат/Информация : Advanced Audio Codec
Профиль формата : HE-AAC / LC
Идентификатор кодека : A_AAC
Продолжительность : 2 ч. 35 м.
Битрейт : 76,0 Кбит/сек
Каналы : 2 канала
Расположение каналов : Front: L R
Частота : 48,0 КГц / 24,0 КГц
Частота кадров : 23,438 кадра/сек (1024 SPF)
Метод сжатия : С потерями
Задержка видео : 31 мс.
Размер потока : 84,5 Мбайт (8%)
Язык : Russian
Default : Нет
Forced : Нет

Текст
Идентификатор : 4
Формат : UTF-8
Идентификатор кодека : S_TEXT/UTF8
Идентификатор кодека/Информация : UTF-8 Plain Text
Продолжительность : 2 ч. 32 м.
Битрейт : 45 бит/сек
ElementCount : 906
Размер потока : 51,3 Кбайт (0%)
Язык : Russian
Default : Нет
Forced : Нет

Меню
00:00:00.000 : en:Chapter 1
00:26:15.625 : en:Chapter 2
00:42:31.583 : en:Chapter 3
00:50:25.167 : en:Chapter 4
01:06:39.917 : en:Chapter 5
01:19:29.542 : en:Chapter 6
01:36:52.208 : en:Chapter 7
01:53:27.042 : en:Chapter 8
02:06:14.708 : en:Chapter 9
02:19:48.292 : en:Chapter 10
02:28:18.042 : en:Chapter 11
02:33:38.458 : en:Chapter 12




У вас нет необходимых прав для просмотра вложений в этом сообщении.


Вернуться к началу
 Профиль  
Ответить с цитатой  
  • Торрент
Автор: oartemka178 Хэш: ---
Добавлен: 2018-10-17 19:41 Приватный: Нет (DHT включён)
Статус: Проверен
Размер: 1.07 ГБ (1 153 569 277 байт)
Изменил:
---
Скачали: 0 (Раздающих: 0%)
Причина:
---
Здоровье: 0%
Сидеров: 0 Личеров: 0
Скорость раздачи: 0 байт/сек Скорость скачивания: 0 байт/сек
Последний сидер: 11 месяцев 6 дней 10 часов 31 минуту 34 секунды назад Последний личер: 1 год 3 месяца 5 дней 14 часов 40 минут 28 секунд назад
Для скачивания торрента необходимо зарегистрироваться или войти на трекер.
Показать сообщения за:  Поле сортировки  
Начать новую тему Ответить на тему  [ 1 сообщение ] 

Часовой пояс: UTC + 3 часа


Кто сейчас на конференции

Сейчас этот форум просматривают: нет зарегистрированных пользователей и гости: 1


Вы не можете начинать темы
Вы не можете отвечать на сообщения
Вы не можете редактировать свои сообщения
Вы не можете удалять свои сообщения
Вы не можете добавлять вложения

Найти:
Перейти:  
cron
cron