Часовой пояс: UTC + 3 часа




Начать новую тему Ответить на тему  [ 1 сообщение ] 
Автор Сообщение
СообщениеДобавлено: 2018-11-14 21:34 
Не в сети
Администратор
Администратор
Аватара пользователя
Раздал: 51.58 ТБ
Скачал: 620.08 ГБ
Ратио: 85.182


Зарегистрирован: 2010-11-09 02:24
Сообщения: 44887
Откуда: Земля Санникова
Черри / About Cherry


#777

Информация о фильме
Название: Черри
Оригинальное название: About Cherry
Год выхода: 2012
Страна: США
Студия: Enderby Entertainment, Gordon Bijelonic / Datari Turner Films
Продолжительность: 01:42:11
Перевод: Любительский одноголосный, закадровый [Kerob]
Жанр: драма, эротика

Режиссер: Стивен Эллиот

В ролях:
Эшли Хиншоу, Лили Тейлор, Дев Патель, Джонни Уэстон, Джеймс Франко, Хизер Грэм, Дайан Фарр, Майя Рэйнс, Винсент Пало, Элана Крауш

О фильме:
История 18-летний девушки начинающей работать в порнографическом бизнесе после того, как она переезжает в Сан-Франциско. Первое о чем ей предстоит позаботиться – какой-нибудь заработок. Новый город – новые друзья, новая судьба и пьянящая возможность легко и весело заработать, снимаясь у профессионалов. Сначала фото, потом видео - можно показать себя, пускай и полностью, без цензуры. Для раскованной симпатичной девчонки это легко.





Файл
Кодек: H.264
Качество: BDRip 720p
Видео: AVC, 1280x720 (16:9), 23.976 fps ~ 4580 Kbps
Звук:
AC3, 48 KHz, 6 ch ~ 448 Kb/s (русский)
DTS, 48 KHz, 6 ch ~ 1510 Kb/s (английский)
Субтитры: отсутствуют

Общее
Уникальный идентификатор : 217914896454828476755386353073480334360 (0xA3F0E1E7A7EE9E46896A588F9018FC18)
Полное имя : Q:TorFAbout.Cherry.2012.720p.mkv
Формат : Matroska
Версия формата : Version 2
Размер файла : 4,66 Гбайт
Продолжительность : 1 ч. 42 м.
Общий поток : 6535 Кбит/сек
Дата кодирования : UTC 2017-08-08 11:30:55
Программа кодирования : mkvmerge v5.4.0 ('Piper') built on Mar 10 2012 13:34:39
Библиотека кодирования : libebml v1.2.3 + libmatroska v1.3.0

Видео
Идентификатор : 1
Формат : AVC
Формат/Информация : Advanced Video Codec
Профиль формата : High@L4.1
Параметр CABAC формата : Да
Параметр ReFrames формата : 8 кадров
Идентификатор кодека : V_MPEG4/ISO/AVC
Продолжительность : 1 ч. 42 м.
Битрейт : 4580 Кбит/сек
Ширина : 1280 пикселей
Высота : 720 пикселей
Соотношение сторон : 16:9
Частота кадров : 23,976 кадра/сек
Цветовое пространство : YUV
Субдискретизация насыщенности : 4:2:0
Битовая глубина : 8 бит
Тип развёртки : Прогрессивная
Бит/(Пиксели*Кадры) : 0.207
Размер потока : 3,17 Гбайт (68%)
Заголовок : About.Cherry.2012
Библиотека кодирования : x264 core 125 r2208 d9d2288
Настройки программы : cabac=1 / ref=8 / deblock=1:-3:-3 / analyse=0x3:0x113 / me=umh / subme=10 / psy=1 / psy_rd=1.00:0.05 / mixed_ref=1 / me_range=32 / chroma_me=1 / trellis=2 / 8x8dct=1 / cqm=0 / deadzone=21,11 / fast_pskip=0 / chroma_qp_offset=-2 / threads=8 / lookahead_threads=1 / sliced_threads=0 / nr=0 / decimate=1 / interlaced=0 / bluray_compat=0 / constrained_intra=0 / bframes=5 / b_pyramid=2 / b_adapt=2 / b_bias=0 / direct=3 / weightb=1 / open_gop=0 / weightp=2 / keyint=250 / keyint_min=23 / scenecut=40 / intra_refresh=0 / rc=2pass / mbtree=0 / bitrate=4580 / ratetol=1.0 / qcomp=0.70 / qpmin=0 / qpmax=69 / qpstep=4 / cplxblur=20.0 / qblur=0.5 / ip_ratio=1.40 / pb_ratio=1.30 / aq=2:1.00
Язык : English
Default : Да
Forced : Нет

Аудио #1
Идентификатор : 2
Формат : AC-3
Формат/Информация : Audio Coding 3
Расширение режима : CM (complete main)
Идентификатор кодека : A_AC3
Продолжительность : 1 ч. 42 м.
Вид битрейта : Постоянный
Битрейт : 448 Кбит/сек
Каналы : 6 каналов
Расположение каналов : Front: L C R, Side: L R, LFE
Частота : 48,0 КГц
Битовая глубина : 16 бит
Метод сжатия : С потерями
Размер потока : 327 Мбайт (7%)
Заголовок : Kerob
Язык : Russian
Default : Да
Forced : Нет

Аудио #2
Идентификатор : 3
Формат : DTS
Формат/Информация : Digital Theater Systems
Идентификатор кодека : A_DTS
Продолжительность : 1 ч. 42 м.
Вид битрейта : Постоянный
Битрейт : 1510 Кбит/сек
Каналы : 6 каналов
Расположение каналов : Front: L C R, Side: L R, LFE
Частота : 48,0 КГц
Битовая глубина : 24 бит
Метод сжатия : С потерями
Размер потока : 1,08 Гбайт (23%)
Заголовок : DTS-CORE 1536K
Язык : English
Default : Нет
Forced : Нет




У вас нет необходимых прав для просмотра вложений в этом сообщении.


Вернуться к началу
 Профиль  
Ответить с цитатой  
  • Торрент
Автор: oartemka178 Хэш: ---
Добавлен: 2018-11-14 21:34 Приватный: Нет (DHT включён)
Статус: Проверен
Размер: 4.66 ГБ (5 008 130 108 байт)
Изменил:
---
Скачали: 1 (Раздающих: 0%)
Причина:
---
Здоровье: 100%
Сидеров: 3 Личеров: 1
Скорость раздачи: 0 байт/сек Скорость скачивания: 0 байт/сек
Последний сидер: 9 дней 2 часа 57 минут 56 секунд назад Последний личер: 9 дней 2 часа 57 минут 56 секунд назад
Для скачивания торрента необходимо зарегистрироваться или войти на трекер.
Показать сообщения за:  Поле сортировки  
Начать новую тему Ответить на тему  [ 1 сообщение ] 

Часовой пояс: UTC + 3 часа


Кто сейчас на конференции

Сейчас этот форум просматривают: нет зарегистрированных пользователей и гости: 2


Вы не можете начинать темы
Вы не можете отвечать на сообщения
Вы не можете редактировать свои сообщения
Вы не можете удалять свои сообщения
Вы не можете добавлять вложения

Найти:
Перейти:  
Переместиться наверх
 Главная |  Список форумов |   Time : 0.087s | 15 Queries | GZIP : Off |
tracker_cron