Часовой пояс: UTC + 3 часа




Начать новую тему Ответить на тему  [ 1 сообщение ] 
Автор Сообщение
СообщениеДобавлено: 2019-01-06 16:03 
Не в сети
Администратор
Администратор
Аватара пользователя
Раздал: 51.58 ТБ
Скачал: 620.08 ГБ
Ратио: 85.182


Зарегистрирован: 2010-11-09 02:24
Сообщения: 44858
Откуда: Земля Санникова
Дом спящих красавиц / Das Haus der schlafenden Schönen


#777

Год выпуска: 2006
Страна: Германия
Продолжительность: 01:38:59
Перевод: Профессиональный (многоголосый закадровый) студия Омикрон
Субтитры: нет
Оригинальная аудиодорожка: немецкий
Жанр: драма, триллер, эротика

Режиссер: Вадим Гловна / Vadim Glowna

В ролях:
Вадим Гловна, Ангела Винклер, Максимилиан Шелл, Бироль Юнель, Мона Гласс, Марина Вайс-Бургаслиева, Бенджамин Кабук, Петер Луппа, Мария Бергхардт, Линда Эльснер

Описание:
Эдмон, богатый предприниматель конца 60-х, состарился и стал предаваться состояниям отчаяния и депресии. Его жена и дочь погибли в автокатастрофе 15 лет назад. Единственная отрада в его мрачном существовании – это таинственный дом, своего рода бордель, специализированный для пожилых клиентов, где они могут переночевать с красивыми молодыми женщинами...

Сэмпл: http://multi-up.com/973052



Фильм является трагичным и трогательным, подернутым мистическим туманом рассказом, полным воспоминаний о прожитых днях, разбуженных запахами и звуками из настоящего.
Вольная экранизация повести выдающегося японского писателя Ясунари Кавабата "Спящие красавицы".

Доп. информация: Моя благодарность rulle1 за предоставленный исходник, и всем, кто принимал участие в его создании.


Качество видео: DVDRip-AVC
Формат видео: MKV
Видео: h264 AVC, 704х432@989х432, 2156 кбит/с, 25 fps
Аудио: Dolby AC3, 6 ch, 48.0 KHz, 448 Kbps - русский
Аудио 2: Dolby AC3, 6 ch, 48.0 KHz, 448 Kbps - Deutsch
бщее
Уникальный идентификатор : 213455403747175051525285592644746245619 (0xA09603F0639619178065E4DBB58475F3)
Полное имя : D:\Das.Haus.der.schlafenden.Schonen_2006.DVDRip-AVC.mkv
Формат : Matroska
Версия формата : Version 2
Размер файла : 2,11 Гбайт
Продолжительность : 1 ч. 38 м.
Общий поток : 3053 Кбит/сек
Дата кодирования : UTC 2014-05-11 07:54:13
Программа кодирования : mkvmerge v6.3.0 ('You can't stop me!') built on Jul 19 2013 16:27:38
Библиотека кодирования : libebml v1.3.0 + libmatroska v1.4.1
Видео
Идентификатор : 1
Формат : AVC
Формат/Информация : Advanced Video Codec
Профиль формата : High@L4.1
Параметр CABAC формата : Да
Параметр ReFrames формата : 8 кадров
Идентификатор кодека : V_MPEG4/ISO/AVC
Продолжительность : 1 ч. 38 м.
Битрейт : 2156 Кбит/сек
Ширина : 704 пикселя
Высота : 432 пикселя
Соотношение сторон : 2,25:1
Соотношение сторон в оригинале : 2,25:1
Режим частоты кадров : Постоянный
Частота кадров : 25,000 кадров/сек
Цветовое пространство : YUV
Субдискретизация насыщенности : 4:2:0
Битовая глубина : 8 бит
Тип развёртки : Прогрессивная
Бит/(Пиксели*Кадры) : 0.284
Размер потока : 1,45 Гбайт (69%)
Заголовок : by Elan
Библиотека кодирования : x264 core 130 r2273 b3065e6
Настройки программы : cabac=1 / ref=8 / deblock=1:-2:-1 / analyse=0x3:0x113 / me=umh / subme=10 / psy=1 / psy_rd=1.00:0.20 / mixed_ref=1 / me_range=32 / chroma_me=1 / trellis=2 / 8x8dct=1 / cqm=0 / deadzone=21,11 / fast_pskip=0 / chroma_qp_offset=-3 / threads=12 / lookahead_threads=1 / sliced_threads=0 / nr=0 / decimate=0 / interlaced=0 / bluray_compat=0 / constrained_intra=0 / bframes=3 / b_pyramid=2 / b_adapt=2 / b_bias=0 / direct=3 / weightb=1 / open_gop=0 / weightp=2 / keyint=250 / keyint_min=25 / scenecut=40 / intra_refresh=0 / rc_lookahead=60 / rc=2pass / mbtree=1 / bitrate=2156 / ratetol=1.0 / qcomp=0.60 / qpmin=0 / qpmax=69 / qpstep=4 / cplxblur=20.0 / qblur=0.5 / vbv_maxrate=50000 / vbv_bufsize=50000 / nal_hrd=none / ip_ratio=1.40 / aq=1:1.00
Default : Да
Forced : Нет
Аудио #1
Идентификатор : 2
Формат : AC-3
Формат/Информация : Audio Coding 3
Расширение режима : CM (complete main)
Параметр Endianness формата : Big
Идентификатор кодека : A_AC3
Продолжительность : 1 ч. 38 м.
Вид битрейта : Постоянный
Битрейт : 448 Кбит/сек
Каналы : 6 каналов
Расположение каналов : Front: L C R, Side: L R, LFE
Частота : 48,0 КГц
Битовая глубина : 16 бит
Метод сжатия : С потерями
Размер потока : 317 Мбайт (15%)
Заголовок : Omicron
Язык : Russian
Default : Да
Forced : Нет
Аудио #2
Идентификатор : 3
Формат : AC-3
Формат/Информация : Audio Coding 3
Расширение режима : CM (complete main)
Параметр Endianness формата : Big
Идентификатор кодека : A_AC3
Продолжительность : 1 ч. 38 м.
Вид битрейта : Постоянный
Битрейт : 448 Кбит/сек
Каналы : 6 каналов
Расположение каналов : Front: L C R, Side: L R, LFE
Частота : 48,0 КГц
Битовая глубина : 16 бит
Метод сжатия : С потерями
Размер потока : 317 Мбайт (15%)
Язык : German
Default : Нет
Forced : Нет


У вас нет необходимых прав для просмотра вложений в этом сообщении.


Вернуться к началу
 Профиль  
Ответить с цитатой  
  • Торрент
Автор: oartemka178 Хэш: ---
Добавлен: 2019-01-06 16:03 Приватный: Нет (DHT включён)
Статус: Проверен
Размер: 2.11 ГБ (2 266 648 136 байт)
Изменил:
---
Скачали: 1 (Раздающих: 0%)
Причина:
---
Здоровье: 100%
Сидеров: 1 Личеров: 0
Скорость раздачи: 0 байт/сек Скорость скачивания: 0 байт/сек
Последний сидер: 7 дней 17 часов 1 минуту назад Последний личер: 8 месяцев 6 дней 15 часов 29 минут 4 секунды назад
Для скачивания торрента необходимо зарегистрироваться или войти на трекер.
Показать сообщения за:  Поле сортировки  
Начать новую тему Ответить на тему  [ 1 сообщение ] 

Часовой пояс: UTC + 3 часа


Кто сейчас на конференции

Сейчас этот форум просматривают: нет зарегистрированных пользователей и гости: 1


Вы не можете начинать темы
Вы не можете отвечать на сообщения
Вы не можете редактировать свои сообщения
Вы не можете удалять свои сообщения
Вы не можете добавлять вложения

Найти:
Перейти:  
cron
cron