Часовой пояс: UTC + 3 часа




Начать новую тему Ответить на тему  [ 1 сообщение ] 
Автор Сообщение
СообщениеДобавлено: 2019-01-24 17:55 
Не в сети
Администратор
Администратор
Аватара пользователя
Раздал: 1.22 ТБ
Скачал: 2.13 ГБ
Ратио: 585.764


Зарегистрирован: 2014-03-16 00:45
Сообщения: 2629
Рабыни / Las esclavas


#777

Год выпуска: 1987
Страна: Аргентина
Продолжительность: 01:22:09
Перевод: Любительский (одноголосный закадровый) Хлам-Видео
Субтитры: нет
Оригинальная аудиодорожка: нет
Жанр: драма, криминал, боевик, эротика

Режиссер: Карлос Ф. Боркоске / Carlos F. Borcosque

В ролях:
Родольфо Ранни, Камила Периссе, Перла Санталья, Сусана Ромеро, Энрике Липорасе, Херардо Романо

Описание:
Александр Бальникофф - полицейский Буэнос-Айреса, сын польской эмигрантки и русского бандита, борется с мафией, крышующей проституцию. Насчёт этого у него пунктик, корнями уходящий в далёкое прошлое. Преступники не пасуют и отыгрываются на семье неподкупного полицейского. Но, как известно, русские не сдаются, и поэтому мерзавцам не поздоровится. Под горячую руку полицейского заодно попадёт и наркомафия. © oops1974

Доп. информация: Перевод отца русской демократии из Парижа

Сэмпл: http://sendfile.su/1470279



Качество видео: VCDRip
Формат видео: AVI
Видео: Xvid, 316x232, 4:3, 25fps, 1021kbps
Аудио: AC3, 48000Hz, stereo, 192kbps
Код:
General
Complete name                  : Z:\Las esclavas 1987.avi
Format                         : AVI
Format/Info                    : Audio Video Interleave
File size                      : 716 MiB
Duration                       : 1 h 22 min
Overall bit rate               : 1 219 kb/s
Writing application            : VirtualDubMod 1.5.10.2 (build 2542/release)
Writing library                : VirtualDubMod build 2542/release
Video
ID                             : 0
Format                         : MPEG-4 Visual
Format profile                 : Advanced Simple@L5
Format settings                : BVOP2
Format settings, BVOP          : 2
Format settings, QPel          : No
Format settings, GMC           : No warppoints
Format settings, Matrix        : Default (H.263)
Codec ID                       : XVID
Codec ID/Hint                  : XviD
Duration                       : 1 h 22 min
Bit rate                       : 1 022 kb/s
Width                          : 316 pixels
Height                         : 232 pixels
Display aspect ratio           : 4:3
Frame rate                     : 25.000 FPS
Color space                    : YUV
Chroma subsampling             : 4:2:0
Bit depth                      : 8 bits
Scan type                      : Progressive
Compression mode               : Lossy
Bits/(Pixel*Frame)             : 0.557
Stream size                    : 600 MiB (84%)
Writing library                : XviD 1.1.0 (UTC 2005-11-22)
Audio
ID                             : 1
Format                         : AC-3
Format/Info                    : Audio Coding 3
Codec ID                       : 2000
Duration                       : 1 h 20 min
Bit rate mode                  : Constant
Bit rate                       : 192 kb/s
Channel(s)                     : 2 channels
Channel positions              : Front: L R
Sampling rate                  : 48.0 kHz
Frame rate                     : 31.250 FPS (1536 SPF)
Bit depth                      : 16 bits
Compression mode               : Lossy
Stream size                    : 110 MiB (15%)
Alignment                      : Split accross interleaves
Interleave, duration           : 41  ms (1.02 video frame)
Interleave, preload duration   : 500  ms
Service kind                   : Complete Main



У вас нет необходимых прав для просмотра вложений в этом сообщении.


Вернуться к началу
 Профиль  
Ответить с цитатой  
  • Торрент
Автор: Consultants Хэш: ---
Добавлен: 2019-01-24 17:55 Приватный: Нет (DHT включён)
Статус: Проверен
Размер: 716.13 МБ (750 917 632 байт)
Изменил:
---
Скачали: 0 (Раздающих: 0%)
Причина:
---
Здоровье: 100%
Сидеров: 2 Личеров: 1
Скорость раздачи: 0 байт/сек Скорость скачивания: 0 байт/сек
Последний сидер: 7 дней 17 часов 2 минуты 53 секунды назад Последний личер: 7 дней 17 часов 2 минуты 53 секунды назад
Для скачивания торрента необходимо зарегистрироваться или войти на трекер.
Показать сообщения за:  Поле сортировки  
Начать новую тему Ответить на тему  [ 1 сообщение ] 

Часовой пояс: UTC + 3 часа


Кто сейчас на конференции

Сейчас этот форум просматривают: нет зарегистрированных пользователей и гости: 1


Вы не можете начинать темы
Вы не можете отвечать на сообщения
Вы не можете редактировать свои сообщения
Вы не можете удалять свои сообщения
Вы не можете добавлять вложения

Найти:
Перейти:  
cron
cron