Часовой пояс: UTC + 3 часа




Начать новую тему Ответить на тему  [ 1 сообщение ] 
Автор Сообщение
СообщениеДобавлено: 2019-03-15 15:09 
Не в сети
Администратор
Администратор
Аватара пользователя
Раздал: 51.58 ТБ
Скачал: 620.08 ГБ
Ратио: 85.182


Зарегистрирован: 2010-11-09 02:24
Сообщения: 44858
Откуда: Земля Санникова
Когда любовь есть чувственность / Quando l'amore e sensualita


#777

Год выхода: 1973
Производство: Италия / T.R.A.C.
Продолжительность: 01:27:26
Перевод: Одноголосый закадровый (Сергей Квардаков «CCK+», Andi999)
Субтитры: Русские
Жанр: Драма, эротика

Режиссер: Витторио Де Систи

Продюсер: Энцо Дориа

Актеры: Агостина Белли, Джанни Маччия, Ева Аулин, Франсуаз Прево, Феми Бенусси, Умберто Рахо, Джованни Росселли, Джованни Петруччи, Моника Монет, Рина Франкетти

Описание:
Молодая благопристойная барышня Эрминия, дочь разорившейся графини, выходит замуж за деревенского нувориша — владельца огромной свинофермы. Муженек и ведет себя с женой, подобно одному из хряков, которых он разводит — пытается изнасиловать ее в первую же брачную ночь, несмотря на усталость и моральную неподготовленность супруги. Впрочем, после такого нажима Эрминия вообще начинает бояться супруга, сбегая от него каждую последующую ночь в соседнюю комнату, а по прошествии некоторого времени — и вообще, в город к сестре.





Возраст: 18+ (зрителям, достигшим 18 лет. запрещено для детей)

Релиз от: Охрана (NNMCLUB)

Качество видео: DVDRip
Видео: AVC/H.264, 720x384, ~2046 Kbps
Аудио 1: AC3, 2 ch, 192 Kbps, 48.0 kHz – Русский VO, Сергей Квардаков «CCK+»
Аудио 2: AC3, 2 ch, 192 Kbps, 48.0 kHz – Русский VO, Andi999
Аудио 3: AC3, 2 ch, 192 Kbps, 48.0 kHz – Итальянский
Код:
Общее
Уникальный идентификатор                 : 201071463493610896927623925259931589880 (0x9744F48B4A7ACDC284041B5259B99CF8)
Полное имя                               : B:\Downloads\Когда любовь есть чувственность. 1973. NNMCLUB.mkv
Формат                                   : Matroska
Версия формата                           : Version 4 / Version 2
Размер файла                             : 1,60 Гбайт
Продолжительность                        : 1 ч. 27 м.
Общий поток                              : 2624 Кбит/сек
Дата кодирования                         : UTC 2019-03-15 08:47:11
Программа кодирования                    : mkvmerge v7.9.0 ('Birds') 64bit
Библиотека кодирования                   : libebml v1.3.1 + libmatroska v1.4.2

Видео
Идентификатор                            : 1
Формат                                   : AVC
Формат/Информация                        : Advanced Video Codec
Профиль формата                          : [url=http://nnmclub.to/mailto:High@L4.1]High@L4.1[/url]
Настройки формата                        : CABAC / 12 Ref Frames
Параметр CABAC формата                   : Да
Параметр RefFrames формата               : 12 кадров
Идентификатор кодека                     : V_MPEG4/ISO/AVC
Продолжительность                        : 1 ч. 27 м.
Битрейт                                  : 2046 Кбит/сек
Ширина                                   : 720 пикселей
Высота                                   : 384 пикселя
Соотношение сторон                       : 1,85:1
Режим частоты кадров                     : Постоянный
Частота кадров                           : 25,000 кадров/сек
Цветовое пространство                    : YUV
Субдискретизация насыщенности            : 4:2:0
Битовая глубина                          : 8 бит
Тип развёртки                            : Прогрессивная
Бит/(Пиксели*Кадры)                      : 0.296
Размер потока                            : 1,25 Гбайт (78%)
Заголовок                                : Quando l'amore e sensualita
Библиотека кодирования                   : x264 core 146 r2538 121396c
Настройки программы                      : cabac=1 / ref=12 / deblock=1:-1:-1 / analyse=0x3:0x113 / me=umh / subme=10 / psy=1 / psy_rd=1.00:0.10 / mixed_ref=1 / me_range=32 / chroma_me=1 / trellis=2 / 8x8dct=1 / cqm=0 / deadzone=21,11 / fast_pskip=0 / chroma_qp_offset=-3 / threads=6 / lookahead_threads=1 / sliced_threads=0 / nr=0 / decimate=0 / interlaced=0 / bluray_compat=0 / constrained_intra=0 / bframes=7 / b_pyramid=2 / b_adapt=2 / b_bias=0 / direct=3 / weightb=1 / open_gop=0 / weightp=2 / keyint=250 / keyint_min=25 / scenecut=40 / intra_refresh=0 / rc_lookahead=60 / rc=2pass / mbtree=1 / bitrate=2046 / ratetol=1.0 / qcomp=0.60 / qpmin=0 / qpmax=69 / qpstep=4 / cplxblur=20.0 / qblur=0.5 / vbv_maxrate=14000 / vbv_bufsize=14000 / nal_hrd=none / filler=0 / ip_ratio=1.40 / aq=1:1.00
Язык                                     : Italian
Default                                  : Да
Forced                                   : Нет

Аудио #1
Идентификатор                            : 2
Формат                                   : AC-3
Формат/Информация                        : Audio Coding 3
Идентификатор кодека                     : A_AC3
Продолжительность                        : 1 ч. 27 м.
Вид битрейта                             : Постоянный
Битрейт                                  : 192 Кбит/сек
Каналы                                   : 2 канала
Расположение каналов                     : Front: L R
Частота                                  : 48,0 КГц
Частота кадров                           : 31,250 кадров/сек (1536 SPF)
Битовая глубина                          : 16 бит
Метод сжатия                             : С потерями
Размер потока                            : 120 Мбайт (7%)
Заголовок                                : Одноголосый закадровый, CCK+
Язык                                     : Russian
ServiceKind/String                       : Complete Main
Default                                  : Да
Forced                                   : Нет

Аудио #2
Идентификатор                            : 3
Формат                                   : AC-3
Формат/Информация                        : Audio Coding 3
Идентификатор кодека                     : A_AC3
Продолжительность                        : 1 ч. 27 м.
Вид битрейта                             : Постоянный
Битрейт                                  : 192 Кбит/сек
Каналы                                   : 2 канала
Расположение каналов                     : Front: L R
Частота                                  : 48,0 КГц
Частота кадров                           : 31,250 кадров/сек (1536 SPF)
Битовая глубина                          : 16 бит
Метод сжатия                             : С потерями
Размер потока                            : 120 Мбайт (7%)
Заголовок                                : Одноголосый закадровый, Andi999
Язык                                     : Russian
ServiceKind/String                       : Complete Main
Default                                  : Нет
Forced                                   : Нет

Аудио #3
Идентификатор                            : 4
Формат                                   : AC-3
Формат/Информация                        : Audio Coding 3
Идентификатор кодека                     : A_AC3
Продолжительность                        : 1 ч. 27 м.
Вид битрейта                             : Постоянный
Битрейт                                  : 192 Кбит/сек
Каналы                                   : 2 канала
Расположение каналов                     : Front: L R
Частота                                  : 48,0 КГц
Частота кадров                           : 31,250 кадров/сек (1536 SPF)
Битовая глубина                          : 16 бит
Метод сжатия                             : С потерями
Размер потока                            : 120 Мбайт (7%)
Заголовок                                : Итальянский
Язык                                     : Italian
ServiceKind/String                       : Complete Main
Default                                  : Нет
Forced                                   : Нет

Текст
Идентификатор                            : 5
Формат                                   : UTF-8
Идентификатор кодека                     : S_TEXT/UTF8
Идентификатор кодека/Информация          : UTF-8 Plain Text
Продолжительность                        : 1 ч. 27 м.
Битрейт                                  : 97 бит/сек
ElementCount                             : 967
Размер потока                            : 62,1 Кбайт (0%)
Заголовок                                : SRT
Язык                                     : Russian
Default                                  : Нет
Forced                                   : Нет

Скриншоты:




Время раздачи: с 13:00 до 01:00 МСК, выходные круглосуточно (до первых 3-x скачавших)


У вас нет необходимых прав для просмотра вложений в этом сообщении.


Вернуться к началу
 Профиль  
Ответить с цитатой  
  • Торрент
Автор: oartemka178 Хэш: ---
Добавлен: 2019-03-15 15:09 Приватный: Нет (DHT включён)
Статус: Проверен
Размер: 1.6 ГБ (1 720 968 524 байт)
Изменил:
---
Скачали: 1 (Раздающих: 0%)
Причина:
---
Здоровье: 0%
Сидеров: 0 Личеров: 0
Скорость раздачи: 0 байт/сек Скорость скачивания: 0 байт/сек
Последний сидер: 15 дней 17 минут 14 секунд назад Последний личер: 15 дней 15 часов 35 минут 9 секунд назад
Для скачивания торрента необходимо зарегистрироваться или войти на трекер.
Показать сообщения за:  Поле сортировки  
Начать новую тему Ответить на тему  [ 1 сообщение ] 

Часовой пояс: UTC + 3 часа


Кто сейчас на конференции

Сейчас этот форум просматривают: нет зарегистрированных пользователей и гости: 1


Вы не можете начинать темы
Вы не можете отвечать на сообщения
Вы не можете редактировать свои сообщения
Вы не можете удалять свои сообщения
Вы не можете добавлять вложения

Найти:
Перейти:  
cron