Часовой пояс: UTC + 3 часа




Начать новую тему Ответить на тему  [ 1 сообщение ] 
Автор Сообщение
СообщениеДобавлено: 2019-04-16 17:17 
Не в сети
Администратор
Администратор
Аватара пользователя
Раздал: 51.58 ТБ
Скачал: 620.08 ГБ
Ратио: 85.182


Зарегистрирован: 2010-11-09 02:24
Сообщения: 44858
Откуда: Земля Санникова
Неожиданный ад / Случайный ад / An Occasional Hell
«An unexplained death. An agonizing secret. An irresistible desire»


#777

Год выпуска: 1996
Страна: США
Продолжительность: 01:28:54
Перевод: Авторский (одноголосый закадровый) Сергей Кузнецов
Субтитры: нет
Жанр: Триллер, эротика

Режиссер: Саломе Брезинер / Salomé Breziner

В ролях: Том Беренджер, Валерия Голино, Кари Вурер, Роберт Дави, Ричард Эдсон, Стивен Лэнг, Дэнни Комден, Эллен Грин, Джеффри Льюис, Трентон МакДевитт

Описание:
Таинственное убийство своего коллеги начинает расследовать герой фильма — бывший полицейский. В деле замешаны две роковые красавицы. Страсть, кровь и даже мистика — вот сюжетные линии этого фильма.



Сэмпл: https://yadi.sk/i/CiIkuBZvH5FrEA

Доп. информация:
Дорожка с С. Кузнецовым синхронизирована и наложена ale_x2008 при помощи Adobe Audition, Sony Vegas и VirtualDubMod.
За оцифрованную с VHS дорожку благодарим - alenavova


Качество видео: DVDRip
Формат видео: AVI
Видео: XviD build 47, 688x496 (1.39:1), 25 fps, 2156 kbps avg, 0.25 bit/pixel
Аудио: AC3 Dolby Digital, 48000Hz, 2/0 (L,R) ch (mono), 192 kbps avg
Код:
Неожиданный ад - An Occasional Hell (by ale_x2008).avi
Format                      : AVI
Format/Info                 : Audio Video Interleave
File size                   : 1.46 GiB
Duration                    : 1 h 28 min
Overall bit rate            : 2 358 kb/s
Movie name                  : Неожиданный ад - An Occasional Hell (by ale_x2008)
Director                    : by ale_x2008
Copyright                   : Edich2
Comment                     : RuTracker.org
Video
ID                          : 0
Format                      : MPEG-4 Visual
Format profile              : Advanced Simple@L5
Format settings             : BVOP2 / Custom Matrix
Format settings, BVOP       : 2
Format settings, QPel       : No
Format settings, GMC        : No warppoints
Format settings, Matrix     : Custom
Codec ID                    : XVID
Codec ID/Hint               : XviD
Duration                    : 1 h 28 min
Bit rate                    : 2 157 kb/s
Width                       : 688 pixels
Height                      : 496 pixels
Display aspect ratio        : 1.387
Frame rate                  : 25.000 FPS
Color space                 : YUV
Chroma subsampling          : 4:2:0
Bit depth                   : 8 bits
Scan type                   : Progressive
Compression mode            : Lossy
Bits/(Pixel*Frame)          : 0.253
Stream size                 : 1.34 GiB (91%)
Writing library             : XviD 1.2.0.dev47 (UTC 2006-11-01)
Audio
ID                          : 1
Format                      : AC-3
Format/Info                 : Audio Coding 3
Codec ID                    : 2000
Duration                    : 1 h 28 min
Bit rate mode               : Constant
Bit rate                    : 192 kb/s
Channel(s)                  : 2 channels
Channel positions           : Front: L R
Sampling rate               : 48.0 kHz
Frame rate                  : 31.250 FPS (1536 SPF)
Bit depth                   : 16 bits
Compression mode            : Lossy
Stream size                 : 122 MiB (8%)
Alignment                   : Split accross interleaves
Interleave, duration        : 40  ms (1.00 video frame)
Interleave, preload duratio : 500  ms
Service kind                : Complete Main




У вас нет необходимых прав для просмотра вложений в этом сообщении.


Вернуться к началу
 Профиль  
Ответить с цитатой  
  • Торрент
Автор: oartemka178 Хэш: ---
Добавлен: 2019-04-16 17:17 Приватный: Нет (DHT включён)
Статус: Проверен
Размер: 1.46 ГБ (1 572 545 602 байт)
Изменил:
---
Скачали: 0 (Раздающих: 0%)
Причина:
---
Здоровье: 100%
Сидеров: 2 Личеров: 1
Скорость раздачи: 0 байт/сек Скорость скачивания: 0 байт/сек
Последний сидер: 7 дней 17 часов 2 минуты 47 секунд назад Последний личер: 7 дней 17 часов 2 минуты 47 секунд назад
Для скачивания торрента необходимо зарегистрироваться или войти на трекер.
Показать сообщения за:  Поле сортировки  
Начать новую тему Ответить на тему  [ 1 сообщение ] 

Часовой пояс: UTC + 3 часа


Кто сейчас на конференции

Сейчас этот форум просматривают: нет зарегистрированных пользователей и гости: 1


Вы не можете начинать темы
Вы не можете отвечать на сообщения
Вы не можете редактировать свои сообщения
Вы не можете удалять свои сообщения
Вы не можете добавлять вложения

Найти:
Перейти:  
cron
cron