Часовой пояс: UTC + 3 часа




Начать новую тему Ответить на тему  [ 1 сообщение ] 
Автор Сообщение
СообщениеДобавлено: 2019-09-01 11:28 
Не в сети
Администратор
Администратор
Аватара пользователя
Раздал: 147.54 ТБ
Скачал: 20.77 ГБ
Ратио: 7272.445


Зарегистрирован: 2010-01-16 12:34
Сообщения: 686
Белоснежка. Сказка для взрослых / Blanche comme neige


#777

Информация о фильме
Название: Белоснежка. Сказка для взрослых
Оригинальное название: Blanche comme neige
Год выхода: 2019
Страна: Франция, Бельгия
Студия: Mandarin Films, Ciné@, Gaumont
Продолжительность: 01:52:17
Перевод: Дублированный | iTunes
Жанр: Драма, комедия, эротика

Режиссер: Анн Фонтен

В ролях:
Лу де Лааж, Изабель Юппер, Шарль Берлинг, Дамиен Боннар, Джонатан Коэн, Ричард Фрешетт, Венсан Макен, Пабло Поли, Бенуа Пульворд, Аврора Брутен

О фильме:
После смерти отца юная и прекрасная сирота Клэр продолжает работать в принадлежавшем ему отеле под руководством авторитарной мачехи Мод. Когда молодой любовник Мод заглядывается на Клэр, ревнивая вдова решает жестоко избавиться от соперницы. Клэр бежит на отдаленную ферму, где встречает семерых мужчин и начинает познания себя и своей сексуальности.





Файл
Качество: WEB-DL 720p
Контейнер: MKV
Видео: MPEG-4 AVC, 1280x720, 4072 Kbps, 24.000 fps
Аудио: Russian: AC3, 48.0 KHz, 6 ch, 384 kbps - iTunes
Субтитры: Нет

Релиз от:


General
Unique ID : 50964880916944988690919676644768103593 (0x26577AA18392AAA05A3AAF1D54A83CA9)
Complete name : Blanche.comme.neige.2019.WEB-DL.Rus.TeamHD.mkv
Format : Matroska
Format version : Version 4
File size : 3.50 GiB
Duration : 1h 52mn
Overall bit rate : 4 457 Kbps
Encoded date : UTC 2019-08-30 20:22:04
Writing application : mkvmerge v8.5.1 ('Where you lead I will follow') 64bit
Writing library : libebml v1.3.3 + libmatroska v1.4.4

Video
ID : 1
Format : AVC
Format/Info : Advanced Video Codec
Format profile : High@L3.1
Format settings : 2 Ref Frames
Format settings, CABAC : No
Format settings, ReFrames : 2 frames
Codec ID : V_MPEG4/ISO/AVC
Duration : 1h 52mn
Bit rate : 4 072 Kbps
Width : 1 280 pixels
Height : 720 pixels
Display aspect ratio : 16:9
Frame rate mode : Constant
Frame rate : 24.000 fps
Color space : YUV
Chroma subsampling : 4:2:0
Bit depth : 8 bits
Scan type : Progressive
Bits/(Pixel*Frame) : 0.184
Stream size : 3.19 GiB (91%)
Title : Main Program
Language : French
Default : Yes
Forced : No
Color range : Limited
Color primaries : BT.709
Transfer characteristics : BT.709
Matrix coefficients : BT.709

Audio
ID : 2
Format : AC-3
Format/Info : Audio Coding 3
Commercial name : Dolby Digital
Codec ID : A_AC3
Duration : 1h 52mn
Bit rate mode : Constant
Bit rate : 384 Kbps
Channel(s) : 6 channels
Channel layout : L R C LFE Ls Rs
Sampling rate : 48.0 KHz
Frame rate : 31.250 fps (1536 SPF)
Bit depth : 16 bits
Compression mode : Lossy
Stream size : 308 MiB (9%)
Title : Russian DUB from iTunes Russia DD 5.1
Language : Russian
Service kind : Complete Main
Default : Yes
Forced : No

Menu
00:00:00.000 : en:Глава 1
00:09:05.125 : en:Глава 2
00:17:36.166 : en:Глава 3
00:26:40.249 : en:Глава 4
00:35:07.082 : en:Глава 5
00:43:18.665 : en:Глава 6
00:53:02.748 : en:Глава 7
01:02:26.414 : en:Глава 8
01:12:42.080 : en:Глава 9
01:22:46.163 : en:Глава 10
01:32:52.454 : en:Глава 11
01:41:46.912 : en:Глава 12


У вас нет необходимых прав для просмотра вложений в этом сообщении.


Вернуться к началу
 Профиль  
Ответить с цитатой  
  • Торрент
Автор: Admin Хэш: ---
Добавлен: 2019-09-01 11:28 Приватный: Нет (DHT включён)
Статус: Проверен
Размер: 3.5 ГБ (3 753 662 662 байт)
Изменил:
---
Скачали: 3008 (Раздающих: 0%)
Причина:
---
Здоровье: 100%
Сидеров: 27 Личеров: 3
Скорость раздачи: 0 байт/сек Скорость скачивания: 0 байт/сек
Последний сидер: 13 дней 20 часов 32 минуты 51 секунду назад Последний личер: 13 дней 20 часов 32 минуты 51 секунду назад
Для скачивания торрента необходимо зарегистрироваться или войти на трекер.
Показать сообщения за:  Поле сортировки  
Начать новую тему Ответить на тему  [ 1 сообщение ] 

Часовой пояс: UTC + 3 часа


Кто сейчас на конференции

Сейчас этот форум просматривают: нет зарегистрированных пользователей и гости: 5


Вы не можете начинать темы
Вы не можете отвечать на сообщения
Вы не можете редактировать свои сообщения
Вы не можете удалять свои сообщения
Вы не можете добавлять вложения

Найти:
Перейти:  
cron
Переместиться наверх
 Главная |  Список форумов |   Time : 0.099s | 15 Queries | GZIP : Off |
tracker_cron