Часовой пояс: UTC + 3 часа




Начать новую тему Ответить на тему  [ 1 сообщение ] 
Автор Сообщение
СообщениеДобавлено: 2019-09-17 17:33 
Не в сети
Администратор
Администратор
Аватара пользователя
Раздал: 1.24 ТБ
Скачал: 2.7 ГБ
Ратио: 470.569


Зарегистрирован: 2014-03-16 00:45
Сообщения: 2978
Мальчик по вызову / Call Boy / Shonen


#777

Информация о фильме
Название: Мальчик по вызову
Оригинальное название: Call Boy / Shonen
Страна: Япония
Студия: Fuji Television Network, Horipro, Kyodo Television
Год выпуска: 2018
Продолжительность: 01:58:52
Перевод: Любительский Одноголосый закадровый - Светлана Дмитриева
Субтитры: русские (Hikikomori), английские
Оригинальная аудиодорожка: японский
Жанр: Драма, эротика

Режиссер: Даисукэ Миура

В ролях: Тори Мацудзака, Сэи Матобу, Кёко Энами, Кэнта Идзука, Ю Коянаги, Эрика Мабути, Токума Нисиока, Коконэ Сасаки, Рури Синтаро, Ами Томитэ

О фильме: Рё Моринака учится в университете и подрабатывает в местном баре. Дни парня текут максимально однообразно и вгоняют в уныние. Однажды его друг приводит в бар, где работает Рё, Сидзуку Мидо, хозяйку хост-бара. Она предлагает парню работу, он с готовностью соглашается и вскоре начинает лучше понимать, чего хотят женщины.





Сэмпл

[color=#006699]Качество видео: HDRip
Формат видео: AVI

Видео: 720x304 (2.37:1), 23.976 fps, XviD build 73 ~1553 kbps avg, 0.30 bit/pixel
Аудио: 48 kHz, AC3 Dolby Digital, 2/0 (L,R) ch, ~192 kbps - одноголосый
Аудио: 48 kHz, AC3 Dolby Digital, 3/2 (L,C,R,l,r) + LFE ch, ~384 kbps - оригинал (отдельным файлом)

Общее
Полное имя : H:Shonen.2018.hdrip_[1.46]_[teko]Shonen.2018.hdrip_[1.46].avi
Формат : AVI
Формат/Информация : Audio Video Interleave
Размер файла : 1,46 Гбайт
Продолжительность : 1 ч. 58 м.
Общий поток : 1755 Кбит/сек
Программа кодирования : VirtualDubMod 1.5.10.3 | http://www.virtualdub-fr.org || (build 2550/release)
Библиотека кодирования : VirtualDubMod build 2550/release

Видео
Идентификатор : 0
Формат : MPEG-4 Visual
Профиль формата : Advanced Simple@L5
Параметр BVOP формата : 2
Параметр QPel формата : Нет
Параметр GMC формата : Без точки перехода
Параметр матрицы формата : Выборочная
Идентификатор кодека : XVID
Идентификатор кодека/Подсказка : XviD
Продолжительность : 1 ч. 58 м.
Битрейт : 1554 Кбит/сек
Ширина : 720 пикселей
Высота : 304 пикселя
Соотношение сторон : 2,35:1
Частота кадров : 23,976 кадра/сек
Цветовое пространство : YUV
Субдискретизация насыщенности : 4:2:0
Битовая глубина : 8 бит
Тип развёртки : Прогрессивная
Метод сжатия : С потерями
Бит/(Пиксели*Кадры) : 0.296
Размер потока : 1,29 Гбайт (89%)
Библиотека кодирования : XviD 73

Аудио
Идентификатор : 1
Формат : AC-3
Формат/Информация : Audio Coding 3
Расширение режима : CM (complete main)
Параметр Endianness формата : Big
Идентификатор кодека : 2000
Продолжительность : 1 ч. 58 м.
Вид битрейта : Постоянный
Битрейт : 192 Кбит/сек
Каналы : 2 канала
Расположение каналов : Front: L R
Частота : 48,0 КГц
Битовая глубина : 16 бит
Метод сжатия : С потерями
Размер потока : 163 Мбайт (11%)
Выравнивание : Разделение по промежуткам
Продолжительность промежутка : 42 мс. (1,00 видеокадр)
Время предзагрузки промежутка : 500 мс.





У вас нет необходимых прав для просмотра вложений в этом сообщении.


Вернуться к началу
 Профиль  
Ответить с цитатой  
  • Торрент
Автор: Consultants Хэш: ---
Добавлен: 2019-09-17 17:33 Приватный: Нет (DHT включён)
Статус: Проверен
Размер: 1.78 ГБ (1 907 417 818 байт)
Изменил:
---
Скачали: 455 (Раздающих: 0%)
Причина:
---
Здоровье: 0%
Сидеров: 0 Личеров: 0
Скорость раздачи: 0 байт/сек Скорость скачивания: 0 байт/сек
Последний сидер: Нет Последний личер: Нет
Для скачивания торрента необходимо зарегистрироваться или войти на трекер.
Показать сообщения за:  Поле сортировки  
Начать новую тему Ответить на тему  [ 1 сообщение ] 

Часовой пояс: UTC + 3 часа


Кто сейчас на конференции

Сейчас этот форум просматривают: нет зарегистрированных пользователей и гости: 21


Вы не можете начинать темы
Вы не можете отвечать на сообщения
Вы не можете редактировать свои сообщения
Вы не можете удалять свои сообщения
Вы не можете добавлять вложения

Найти:
Перейти:  
cron
Переместиться наверх
 Главная |  Список форумов |   Time : 0.092s | 17 Queries | GZIP : Off |
tracker_cron