Часовой пояс: UTC + 3 часа




Начать новую тему Ответить на тему  [ 1 сообщение ] 
Автор Сообщение
СообщениеДобавлено: 2019-10-04 17:05 
Не в сети
Администратор
Администратор
Аватара пользователя
Раздал: 1.21 ТБ
Скачал: 181.25 МБ
Ратио: 7017.229


Зарегистрирован: 2014-03-16 00:45
Сообщения: 2485
Победить или умереть / Do or Die


#777

Информация о фильме
Название: Победить или умереть
Оригинальное название: Do or Die
Год выхода: 1991
Страна: США
Студия: Etan Enterprises, Malibu Bay Films
Продолжительность: 01:36:51
Перевод: Профессиональный (многоголосый, закадровый) «Россия»
Жанр: Боевик, приключения, эротика


Режиссер: Энди Сидарис

В ролях:
Пэт Морита, Эрик Эстрада, Дона Спейр, Роберта Васкес, Брюс Пенхалл, Синтия Бримхолл, Уильям Бумиллер, Майкл Дж. Шэйн, Пандора Пикс, Кэролин Лью

О фильме:
Две красотки со страниц "Плейбоя" Дона Спейр и Роберта Васкес выступают в роли двух секретных федеральных агентш. Международный король преступного мира (Морита) замыслил коварный план, чтобы отомстить сексапильным девицам. Правила игры весьма просты: победить или умереть. Прост и фильм - от Гавайских островов до Лас-Вегаса и Нового Орлеана сплошные погони и стрельба.





Файл
Формат: MKV
Качество: BDRip-AVC (BDRemux 1080p)
Видео: MPEG-4 AVC, 760x428, - 1000 Кбит/с
Аудио: AAC-HE, 2 ch, - 76 Кбит/с
Субтитры: Нет
Общее
Уникальный идентификатор : 83736560603868769092581232153760341287 (0x3EFF132FF80FE4B5BE25400ABB7B9D27)
Полное имя : D:MOVIESDo.or.Die.1991.BDRip-AVC.ExKinoRay.mkv
Формат : Matroska
Версия формата : Version 4 / Version 2
Размер файла : 746 Мбайт
Продолжительность : 1 ч. 36 м.
Общий поток : 1077 Кбит/сек
Дата кодирования : UTC 2019-09-29 16:32:44
Программа кодирования : mkvmerge v35.0.0 ('All The Love In The World') 64-bit
Библиотека кодирования : libebml v1.3.9 + libmatroska v1.5.2

Видео
Идентификатор : 1
Формат : AVC
Формат/Информация : Advanced Video Codec
Профиль формата : High@L4.1
Параметр CABAC формата : Да
Параметр RefFrames формата : 12 кадров
Идентификатор кодека : V_MPEG4/ISO/AVC
Продолжительность : 1 ч. 36 м.
Битрейт : 1000 Кбит/сек
Ширина : 760 пикселей
Высота : 428 пикселей
Соотношение сторон : 16:9
Режим частоты кадров : Постоянный
Частота кадров : 23,976 (24000/1001) кадра/сек
Цветовое пространство : YUV
Субдискретизация насыщенности : 4:2:0
Битовая глубина : 8 бит
Тип развёртки : Прогрессивная
Бит/(Пиксели*Кадры) : 0.128
Размер потока : 693 Мбайт (93%)
Библиотека кодирования : x264 core 152 r2851kMod ba24899
Настройки программы : cabac=1 / ref=12 / deblock=1:-3:-2 / analyse=0x3:0x133 / me=umh / subme=10 / psy=1 / fade_compensate=0.00 / psy_rd=1.00:0.10 / mixed_ref=1 / me_range=32 / chroma_me=1 / trellis=2 / 8x8dct=1 / cqm=0 / deadzone=21,11 / fast_pskip=0 / chroma_qp_offset=-3 / threads=6 / lookahead_threads=1 / sliced_threads=0 / nr=0 / decimate=0 / interlaced=0 / bluray_compat=0 / constrained_intra=0 / bframes=12 / b_pyramid=2 / b_adapt=2 / b_bias=0 / direct=3 / weightb=1 / open_gop=0 / weightp=2 / keyint=240 / keyint_min=23 / scenecut=40 / intra_refresh=0 / rc_lookahead=40 / rc=2pass / mbtree=1 / bitrate=1000 / ratetol=1.0 / qcomp=0.60 / qpmin=0 / qpmax=69 / qpstep=4 / cplxblur=20.0 / qblur=0.5 / ip_ratio=1.40 / aq=3:1.00
Default : Да
Forced : Нет

Аудио
Идентификатор : 2
Формат : AAC
Формат/Информация : Advanced Audio Codec
Профиль формата : HE-AAC / LC
Идентификатор кодека : A_AAC
Продолжительность : 1 ч. 36 м.
Битрейт : 76,0 Кбит/сек
Каналы : 2 канала
Расположение каналов : Front: L R
Частота : 48,0 КГц / 24,0 КГц
Частота кадров : 23,438 кадра/сек (1024 SPF)
Метод сжатия : С потерями
Задержка видео : 31 мс.
Размер потока : 52,6 Мбайт (7%)
Язык : Russian
Default : Да
Forced : Нет

Меню
00:00:00.000 : en:Chapter 1
00:08:30.092 : en:Chapter 2
00:15:30.846 : en:Chapter 3
00:25:36.201 : en:Chapter 4
00:33:50.111 : en:Chapter 5
00:41:09.133 : en:Chapter 6
00:50:40.579 : en:Chapter 7
00:57:52.302 : en:Chapter 8
01:07:25.708 : en:Chapter 9
01:14:23.625 : en:Chapter 10
01:23:17.659 : en:Chapter 11
01:34:27.161 : en:Chapter 12
01:36:50.888 : en:Chapter 13




У вас нет необходимых прав для просмотра вложений в этом сообщении.


Вернуться к началу
 Профиль  
Ответить с цитатой  
  • Торрент
Автор: Consultants Хэш: ---
Добавлен: 2019-10-04 17:05 Приватный: Нет (DHT включён)
Статус: Проверен
Размер: 746.44 МБ (782 700 665 байт)
Изменил:
---
Скачали: 0 (Раздающих: 0%)
Причина:
---
Здоровье: 0%
Сидеров: 0 Личеров: 0
Скорость раздачи: 0 байт/сек Скорость скачивания: 0 байт/сек
Последний сидер: Нет Последний личер: Нет
Для скачивания торрента необходимо зарегистрироваться или войти на трекер.
Показать сообщения за:  Поле сортировки  
Начать новую тему Ответить на тему  [ 1 сообщение ] 

Часовой пояс: UTC + 3 часа


Кто сейчас на конференции

Сейчас этот форум просматривают: нет зарегистрированных пользователей и гости: 1


Вы не можете начинать темы
Вы не можете отвечать на сообщения
Вы не можете редактировать свои сообщения
Вы не можете удалять свои сообщения
Вы не можете добавлять вложения

Найти:
Перейти:  
cron
cron