Часовой пояс: UTC + 3 часа




Начать новую тему Ответить на тему  [ 1 сообщение ] 
Автор Сообщение
СообщениеДобавлено: 2019-10-10 21:03 
Не в сети
Администратор
Администратор
Аватара пользователя
Раздал: 80 КБ
Скачал: 0 байт
Ратио: Seed.


Зарегистрирован: 2010-01-16 12:34
Сообщения: 483
Секс ангелов / El sexo de los ángeles


#777

Название: Секс ангелов
Оригинальное название: El sexo de los ángeles
Год выхода: 2012
Страна: Испания, Бразилия
Студия: Agência Nacional do Cinema (ANCINE), Audiovisual Aval SGR, ...
Продолжительность: 01:41:26
Жанр: драма, мелодрама, эротика

Режиссер: Хавьер Вильяверде

В ролях:
Астрид Берже-Фрисби, Альваро Сервантес, Льоренс Гонсалес, Соня Мендес, Джульета Марокко, Луиза Кастелл, Марк Гарсиа Коте, Марк Посиэлло, Рикард Фарре, Ана Симини, ...

Перевод:
- Любительский (одноголосый, закадровый) Antonio
- Любительский (многоголосый, закадровый) the ART of LOVE
- Субтитры от Antonio

О фильме:
Карла и Бруно влюблены друг в друга и наслаждаются беззаботным времяпрепровождением в компании друзей, пока однажды в их жизни не появляется Рей — обаятельный и загадочный парень, живущий не по правилам…





Кодек: x264
Качество: BDRip 1080p
Видео: 1920x816, 8000 kbps, 25 fps
Аудио #1: AC-3, 2 ch, 224 kbps (Rus) - VO Antonio
Аудио #2: AC-3, 2 ch, 192 kbps (Rus) - MVOL the ART of LOVE
Аудио #3: DTS, 6 ch, 768 kbps (Spa)
Субтитры: русские, испанский, английские


x264 [info]: frame I:1107 Avg QP:14.22 size:169802
x264 [info]: frame P:36309 Avg QP:17.35 size: 74918
x264 [info]: frame B:114734 Avg QP:18.92 size: 27647
x264 [info]: consecutive B-frames: 3.6% 4.2% 13.6% 13.1% 7.6% 55.1% 1.5% 0.2% 0.3% 0.1% 0.1% 0.1% 0.4%

Общее
Уникальный идентификатор : 234611374198694910722671017750735945496 (0xB08081D068900C72A54CE827A960FF18)
Полное имя : Секс ангелов (El sexo de los ángeles) 2012 BDRip 1080p.mkv
Формат : Matroska
Версия формата : Version 2
Размер файла : 6,50 Гбайт
Продолжительность : 1 ч. 41 м.
Общий поток : 9179 Кбит/сек
Дата кодирования : UTC 2019-10-09 17:58:50
Программа кодирования : mkvmerge v4.0.0 ('The Stars were mine') сборка от Jun 6 2010 16:18:42
Библиотека кодирования : libebml v1.0.0 + libmatroska v1.0.0

Видео
Идентификатор : 1
Формат : AVC
Формат/Информация : Advanced Video Codec
Профиль формата : High@L4.1
Параметр CABAC формата : Да
Параметр ReFrames формата : 4 кадра
Идентификатор кодека : V_MPEG4/ISO/AVC
Продолжительность : 1 ч. 41 м.
Битрейт : 8000 Кбит/сек
Ширина : 1920 пикселей
Высота : 816 пикселей
Соотношение сторон : 2,35:1
Режим частоты кадров : Постоянный
Частота кадров : 25,000 кадров/сек
Цветовое пространство : YUV
Субдискретизация насыщенности : 4:2:0
Битовая глубина : 8 бит
Тип развёртки : Прогрессивная
Бит/(Пиксели*Кадры) : 0.204
Размер потока : 5,54 Гбайт (85%)
Библиотека кодирования : x264 core 146 r2538 121396c
Настройки программы : cabac=1 / ref=4 / deblock=1:-3:-3 / analyse=0x3:0x133 / me=umh / subme=11 / psy=1 / psy_rd=1.00:0.00 / mixed_ref=1 / me_range=32 / chroma_me=1 / trellis=2 / 8x8dct=1 / cqm=0 / deadzone=21,11 / fast_pskip=0 / chroma_qp_offset=-2 / threads=12 / lookahead_threads=2 / sliced_threads=0 / nr=0 / decimate=0 / interlaced=0 / bluray_compat=0 / constrained_intra=0 / bframes=12 / b_pyramid=2 / b_adapt=2 / b_bias=0 / direct=3 / weightb=1 / open_gop=0 / weightp=2 / keyint=250 / keyint_min=25 / scenecut=40 / intra_refresh=0 / rc=2pass / mbtree=0 / bitrate=8000 / ratetol=1.0 / qcomp=0.60 / qpmin=0 / qpmax=69 / qpstep=4 / cplxblur=20.0 / qblur=0.5 / ip_ratio=1.40 / pb_ratio=1.30 / aq=3:0.80
Язык : Spanish
Default : Нет
Forced : Нет

Аудио #1
Идентификатор : 2
Формат : AC-3
Формат/Информация : Audio Coding 3
Расширение режима : CM (complete main)
Параметр Endianness формата : Big
Идентификатор кодека : A_AC3
Продолжительность : 1 ч. 41 м.
Вид битрейта : Постоянный
Битрейт : 224 Кбит/сек
Каналы : 2 канала
Расположение каналов : Front: L R
Частота : 48,0 КГц
Частота кадров : 31,250 кадров/сек (1536 spf)
Метод сжатия : С потерями
Размер потока : 163 Мбайт (2%)
Заголовок : VO Antonio
Язык : Russian
Default : Нет
Forced : Нет

Аудио #2
Идентификатор : 3
Формат : AC-3
Формат/Информация : Audio Coding 3
Расширение режима : CM (complete main)
Параметр Endianness формата : Big
Идентификатор кодека : A_AC3
Продолжительность : 1 ч. 41 м.
Вид битрейта : Постоянный
Битрейт : 192 Кбит/сек
Каналы : 2 канала
Расположение каналов : Front: L R
Частота : 48,0 КГц
Частота кадров : 31,250 кадров/сек (1536 spf)
Метод сжатия : С потерями
Размер потока : 139 Мбайт (2%)
Заголовок : MVOL the ART of LOVE | Молодёжные сериалы
Язык : Russian
Default : Нет
Forced : Нет

Аудио #3
Идентификатор : 4
Формат : DTS
Формат/Информация : Digital Theater Systems
Режим : 16
Параметр Endianness формата : Big
Идентификатор кодека : A_DTS
Продолжительность : 1 ч. 41 м.
Вид битрейта : Постоянный
Битрейт : 768 Кбит/сек
Каналы : 6 каналов
Расположение каналов : Front: L C R, Side: L R, LFE
Частота : 48,0 КГц
Частота кадров : 93,750 кадра/сек (512 spf)
Битовая глубина : 16 бит
Метод сжатия : С потерями
Размер потока : 557 Мбайт (8%)
Язык : Spanish
Default : Нет
Forced : Нет

Текст #1
Идентификатор : 5
Формат : UTF-8
Идентификатор кодека : S_TEXT/UTF8
Идентификатор кодека/Информация : UTF-8 Plain Text
Заголовок : Antonio
Язык : Russian
Default : Нет
Forced : Нет

Текст #2
Идентификатор : 6
Формат : UTF-8
Идентификатор кодека : S_TEXT/UTF8
Идентификатор кодека/Информация : UTF-8 Plain Text
Язык : Spanish
Default : Нет
Forced : Нет

Текст #3
Идентификатор : 7
Формат : UTF-8
Идентификатор кодека : S_TEXT/UTF8
Идентификатор кодека/Информация : UTF-8 Plain Text
Заголовок : English
Язык : English
Default : Нет
Forced : Нет




У вас нет необходимых прав для просмотра вложений в этом сообщении.


Вернуться к началу
 Профиль  
Ответить с цитатой  
  • Торрент
Автор: Admin Хэш: ---
Добавлен: 2019-10-10 21:03 Приватный: Нет (DHT включён)
Статус: Проверен
Размер: 6.5 ГБ (6 983 254 448 байт)
Изменил:
---
Скачали: 655 (Раздающих: 0%)
Причина:
---
Здоровье: 100%
Сидеров: 25 Личеров: 4
Скорость раздачи: 0 байт/сек Скорость скачивания: 0 байт/сек
Последний сидер: 14 дней 14 часов 16 минут 44 секунды назад Последний личер: 14 дней 14 часов 16 минут 44 секунды назад
Для скачивания торрента необходимо зарегистрироваться или войти на трекер.
Показать сообщения за:  Поле сортировки  
Начать новую тему Ответить на тему  [ 1 сообщение ] 

Часовой пояс: UTC + 3 часа


Кто сейчас на конференции

Сейчас этот форум просматривают: нет зарегистрированных пользователей и гости: 1


Вы не можете начинать темы
Вы не можете отвечать на сообщения
Вы не можете редактировать свои сообщения
Вы не можете удалять свои сообщения
Вы не можете добавлять вложения

Найти:
Перейти:  
cron
cron