Часовой пояс: UTC + 3 часа




Начать новую тему Ответить на тему  [ 1 сообщение ] 
Автор Сообщение
СообщениеДобавлено: 2020-10-13 20:32 
Не в сети
Супермодератор
Супермодератор
Аватара пользователя
Раздал: 10.92 ГБ
Скачал: 0 байт
Ратио: Seed.


Зарегистрирован: 2018-11-16 11:27
Сообщения: 243
Среда обитания / Habitat


#777

Информация о фильме
Название: Среда обитания
Оригинальное название: Habitat
Год выхода: 1997
Выпущено: Канада, Нидерланды / Transfilm, Kingsborough Pictures, Ecotopia, Largo Entertainment
Продолжительность: 01:43:21
Перевод: Профессиональный двухголосый (СТБ)
Жанр: Фантастика, эротика

Режиссер: Рене Даалдер

В ролях:
Бальтазар Гетти, Чеки Карио, Элис Крайдж, Кеннет Уэлш, Лора Харрис, Брэд Остин, Кристофер Хейердал, Кристен Холден-Рид, Дэниэл Пилон, Линн Эдамс

О фильме:
Это был плохой год для Земли. Озоновый слой был уже уничтожен. Сотни видов животных и растений вымерли, а те, что выжили, вынуждены были приспосабливаться к жизни без солнца. Люди были одними из этих видов… Исследователь-микробиолог Хэнк Саймс случайно создает прогрессирующую форму жизни, активно защищающую себя от внешнего вмешательства. И начинается такое...



Семпл



Файл
Формат: avi
Качество: DVDRip
Видео: XviD, 720x480, ~1838 kbps, 23.976 fps
Звук: AC3, 2 ch, 192 kbps - Русский
Субтитры: Отсутствуют

General
Complete name : D:Среда обитания.1997.DVDRip..avi
Format : AVI
Format/Info : Audio Video Interleave
Format profile : OpenDML
File size : 1.47 GiB
Duration : 1 h 43 min
Overall bit rate : 2 042 kb/s
Movie name : Среда обитания / Habitat (СТБ)
Director : JUSTKANT
Writing application : msl
Copyright : На русский язык фильм озвучен международным медиа-центром "СТБ" в 2002 году
Comment : Качество звука: СТБ - TVRip (SuperDVD01)

Video
ID : 0
Format : MPEG-4 Visual
Format profile : Advanced Simple@L5
Format settings : BVOP2
Format settings, BVOP : 2
Format settings, QPel : No
Format settings, GMC : No warppoints
Format settings, Matrix : Default (H.263)
Muxing mode : Packed bitstream
Codec ID : XVID
Codec ID/Hint : XviD
Duration : 1 h 43 min
Bit rate : 1 838 kb/s
Width : 720 pixels
Height : 480 pixels
Display aspect ratio : 3:2
Frame rate : 23.976 (24000/1001) FPS
Color space : YUV
Chroma subsampling : 4:2:0
Bit depth : 8 bits
Scan type : Progressive
Compression mode : Lossy
Bits/(Pixel*Frame) : 0.222
Stream size : 1.33 GiB (90%)
Writing library : XviD 1.2.1 (UTC 2008-12-04)

Audio
ID : 1
Format : AC-3
Format/Info : Audio Coding 3
Commercial name : Dolby Digital
Codec ID : 2000
Duration : 1 h 43 min
Bit rate mode : Constant
Bit rate : 192 kb/s
Channel(s) : 2 channels
Channel layout : L R
Sampling rate : 48.0 kHz
Frame rate : 31.250 FPS (1536 SPF)
Bit depth : 16 bits
Compression mode : Lossy
Stream size : 142 MiB (9%)
Alignment : Aligned on interleaves
Interleave, duration : 32 ms (0.77 video frame)
Service kind : Complete Main


У вас нет необходимых прав для просмотра вложений в этом сообщении.


Вернуться к началу
 Профиль  
Ответить с цитатой  
  • Торрент
Автор: Klingon Хэш: ---
Добавлен: 2020-10-13 20:32 Приватный: Нет (DHT включён)
Статус: Проверен
Размер: 1.47 ГБ (1 583 201 022 байт)
Изменил:
---
Скачали: 0 (Раздающих: 0%)
Причина:
---
Здоровье: 0%
Сидеров: 0 Личеров: 0
Скорость раздачи: 0 байт/сек Скорость скачивания: 0 байт/сек
Последний сидер: Нет Последний личер: Нет
Для скачивания торрента необходимо зарегистрироваться или войти на трекер.
Показать сообщения за:  Поле сортировки  
Начать новую тему Ответить на тему  [ 1 сообщение ] 

Часовой пояс: UTC + 3 часа


Кто сейчас на конференции

Сейчас этот форум просматривают: нет зарегистрированных пользователей и гости: 2


Вы не можете начинать темы
Вы не можете отвечать на сообщения
Вы не можете редактировать свои сообщения
Вы не можете удалять свои сообщения
Вы не можете добавлять вложения

Найти:
Перейти:  
cron
Переместиться наверх
 Главная |  Список форумов |   Time : 0.093s | 15 Queries | GZIP : Off |