Часовой пояс: UTC + 3 часа




Начать новую тему Ответить на тему  [ 1 сообщение ] 
Автор Сообщение
СообщениеДобавлено: 2020-10-13 22:57 
Не в сети
Раздал: 0 байт
Скачал: 0 байт
Ратио: Inf.


Зарегистрирован: 2012-12-16 02:02
Сообщения: 38
Кутёж / The Binge


#777

Информация о фильме
Название: Кутёж
Оригинальное название: The Binge
Год выхода: 2020
Страна: США
Студия: American High, LD Entertainment
Продолжительность: 01:38:01
Перевод: Любительский многоголосый | @MUZOBOZ@
Жанр: Комедия

Режиссер: Джереми Гарелик

В ролях:
Винс Вон, Скайлер Гизондо, Декстер Дарден, Эдуардо Франко, Грэйс Ван Дин, Эстебан Бенито, Эйлин Галиндо, Марта Пиекарз, Зайн Салех, Бриттани Гармс

О фильме:
2032 год. Уже несколько лет в Америке запрещены алкоголь и наркотики, но раз в году наступает день, когда гражданам разрешено отрываться по полной. Усыпив родителей, два друга-старшеклассника стремятся попасть на большую вечеринку, где один из них собирается пригласить на выпускной девушку своей мечты, а по совместительству дочь строгого директора. В процессе приятели прихватывают третьего, который обещает помочь им с проходками, а в это время директор школы, сильно осуждающий всякого рода попойки, отправляется на поиски сбежавшей дочери.





Файл
Кодек: XviD
Качество: WEB-DLRip
Видео: 1927 Кбит/с, 720x304, 24.000 кадр/с
Звук: AC3, 48 Гц, 192 Кбит/сек, 2 ch (L + R) | MVO | @MUZOBOZ@


Общее
Полное имя : D:ТоррентыThe.Binge.2020.RU.XviD.WEB-DLRip-MediaBit.avi
Формат : AVI
Формат/Информация : Audio Video Interleave
Профиль формата : OpenDML
Размер файла : 1,46 Гбайт
Продолжительность : 1 ч. 38 м.
Общий поток : 2 131 Кбит/сек
Название фильма : The Binge (2020)
Программа кодирования : Lavf58.20.100

Видео
Идентификатор : 0
Формат : MPEG-4 Visual
Профиль формата : Advanced Simple@L5
Настройки формата : BVOP1 / Custom Matrix
Параметр BVOP формата : 1
Параметр QPel формата : Нет
Параметр GMC формата : Без точки перехода
Параметр матрицы формата : Выборочная
Идентификатор кодека : XVID
Идентификатор кодека/Подсказка : XviD
Продолжительность : 1 ч. 38 м.
Битрейт : 1 927 Кбит/сек
Ширина : 720 пикселей
Высота : 304 пикселя
Соотношение сторон : 2,40:1
Частота кадров : 24,000 кадра/сек
Цветовое пространство : YUV
Субдискретизация насыщенности : 4:2:0
Битовая глубина : 8 бит
Тип развёртки : Прогрессивная
Метод сжатия : С потерями
Бит/(Пиксели*Кадры) : 0.367
Размер потока : 1,32 Гбайт (90%)
Заголовок : MediaBit
Библиотека кодирования : XviD 67

Аудио
Идентификатор : 1
Формат : AC-3
Формат/Информация : Audio Coding 3
Коммерческое название : Dolby Digital
Идентификатор кодека : 2000
Продолжительность : 1 ч. 37 м.
Вид битрейта : Постоянный
Битрейт : 192 Кбит/сек
Каналы : 2 канала
Channel layout : L R
Частота : 48,0 КГц
Частота кадров : 31,250 кадров/сек (1536 SPF)
Битовая глубина : 16 бит
Метод сжатия : С потерями
Размер потока : 135 Мбайт (9%)
Выравнивание : Соединение по промежуткам
Продолжительность промежутка : 32 мс. (0,77 видеокадр)
Заголовок : MVO [@MUZOBOZ@] MediaBit
Service kind : Complete Main



Релиз от:


У вас нет необходимых прав для просмотра вложений в этом сообщении.


Вернуться к началу
 Профиль  
Ответить с цитатой  
  • Торрент
Автор: Sovetnik Хэш: ---
Добавлен: 2020-10-13 22:57 Приватный: Нет (DHT включён)
Статус: Проверен
Размер: 1.46 ГБ (1 566 454 562 байт)
Изменил:
---
Скачали: 2721 (Раздающих: 0%)
Причина:
---
Здоровье: 100%
Сидеров: 191 Личеров: 13
Скорость раздачи: 0 байт/сек Скорость скачивания: 0 байт/сек
Последний сидер: 5 дней 19 часов 17 минут 18 секунд назад Последний личер: 4 часа 44 минуты 29 секунд назад
Для скачивания торрента необходимо зарегистрироваться или войти на трекер.
Показать сообщения за:  Поле сортировки  
Начать новую тему Ответить на тему  [ 1 сообщение ] 

Часовой пояс: UTC + 3 часа


Кто сейчас на конференции

Сейчас этот форум просматривают: нет зарегистрированных пользователей и гости: 2


Вы не можете начинать темы
Вы не можете отвечать на сообщения
Вы не можете редактировать свои сообщения
Вы не можете удалять свои сообщения
Вы не можете добавлять вложения

Найти:
Перейти:  
Переместиться наверх
 Главная |  Список форумов |   Time : 0.089s | 15 Queries | GZIP : Off |