Часовой пояс: UTC + 3 часа




Начать новую тему Ответить на тему  [ 1 сообщение ] 
Автор Сообщение
СообщениеДобавлено: 2011-12-23 19:59 
Не в сети
Аватара пользователя
Раздал: 1.56 ТБ
Скачал: 3.69 ГБ
Ратио: 431.711


Зарегистрирован: 2011-01-16 12:39
Сообщения: 2464
#efa51a
[font='Times New Roman']Да здравствуют привидения! / At' ziji duchove![/font]


#777Информация о Фильме
Страна: Чехословакия
Год выхода: 1977
Жанр: Детский, Комедия, Сказка
Продолжительность: 01:20:47
Перевод: Одноголосый закадровый (Вячеслав Прошин)
Перевод: Александр Лёвин Роман Зайцев
Оригинальная аудиодорожка: чешский
Режиссёр: Олдржих Липский / Oldrich Lipsky
В ролях: Дана Ваврова, Иржи Прохажка, Иржи Совак, Властимил Бродский, Любомир Липский, Вера Тиханкова, Петр Старый, Игорь Нахтигал, Давид Влчек, Томаш Голый, Иржи Брож, Иржи Брудер, Адольф Филип, Ладислав Шимек, Павлина Сербусова и др.

Краткое содержание: Музыкальная сказка о детях, решивших помочь призраку средневекового рыцаря и его дочери отремонтировать их замок и не допустить превращения его в сельскохозяйственный объект. Кинопортал Близзард

Sample
Информация о Файле
Качество: DVDRip
Контейнер: AVI
Видео: Xvid 640x480 25.00fps 2200Kbps
Аудио #1: Dolby AC3 48000Hz 6ch 448kbps (русский)
Аудио #2: Dolby AC3 48000Hz 6ch 448kbps (чешский)[br][/br]
Format: AVI
Format/Info: Audio Video Interleave
File size: 1.76 GiB
Duration: 1h 20mn
Overall bit rate: 3 111 Kbps
Writing application: VirtualDubModRus 1.5.10.2 (build 2540/release)
Writing library: VirtualDubMod build 2540/release
Video
ID: 0
Format: MPEG-4 Visual
Format profile: Advanced Simple@L5
Format settings, BVOP: 2
Format settings, QPel: No
Format settings, GMC: No warppoints
Format settings, Matrix: Default (H.263)
Muxing mode: Packed bitstream
Codec ID: XVID
Codec ID/Hint: XviD
Duration: 1h 20mn
Bit rate: 2 200 Kbps
Width: 640 pixels
Height: 480 pixels
Display aspect ratio: 4:3
Frame rate: 25.000 fps
Color space: YUV
Chroma subsampling: 4:2:0
Bit depth: 8 bits
Scan type: Progressive
Compression mode: Lossy
Bits/(Pixel*Frame): 0.286
Stream size: 1.24 GiB (71%)
Writing library: XviD 63
Audio #1
ID: 1
Format: AC-3
Format/Info: Audio Coding 3
Mode extension: CM (complete main)
Codec ID: 2000
Duration: 1h 20mn
Bit rate mode: Constant
Bit rate: 448 Kbps
Channel(s): 6 channels
Channel positions: Front: L C R, Side: L R, LFE
Sampling rate: 48.0 KHz
Bit depth: 16 bits
Compression mode: Lossy
Stream size: 259 MiB (14%)
Alignment: Split accross interleaves
Interleave, duration: 40 ms (1.00 video frame)
Interleave, preload duration: 500 ms
Audio #2
ID: 2
Format: AC-3
Format/Info: Audio Coding 3
Mode extension: CM (complete main)
Codec ID: 2000
Duration: 1h 20mn
Bit rate mode: Constant
Bit rate: 448 Kbps
Channel(s): 6 channels
Channel positions: Front: L C R, Side: L R, LFE
Sampling rate: 48.0 KHz
Bit depth: 16 bits
Compression mode: Lossy
Stream size: 259 MiB (14%)
Alignment: Split accross interleaves
Interleave, duration: 40 ms (1.00 video frame)
Interleave, preload duration: 500 ms

Раздача мультитрекерная, при нуле сидируемых можете смело вставать на закачку!


У вас нет необходимых прав для просмотра вложений в этом сообщении.


Вернуться к началу
 Профиль  
Ответить с цитатой  
  • Торрент
Автор: qwerty90 Хэш: ---
Добавлен: 2011-12-23 19:59 Приватный: Нет (DHT включён)
Статус:
---
Размер: 1.76 ГБ (1 884 678 144 байт)
Изменил:
---
Скачали: 0 (Раздающих: 0%)
Причина:
---
Здоровье: 0%
Сидеров: 0 Личеров: 0
Скорость раздачи: 0 байт/сек Скорость скачивания: 0 байт/сек
Последний сидер: Нет Последний личер: Нет
Для скачивания торрента необходимо зарегистрироваться или войти на трекер.
Показать сообщения за:  Поле сортировки  
Начать новую тему Ответить на тему  [ 1 сообщение ] 

Часовой пояс: UTC + 3 часа


Кто сейчас на конференции

Сейчас этот форум просматривают: нет зарегистрированных пользователей и гости: 1


Вы не можете начинать темы
Вы не можете отвечать на сообщения
Вы не можете редактировать свои сообщения
Вы не можете удалять свои сообщения
Вы не можете добавлять вложения

Найти:
Перейти:  
Переместиться наверх
 Главная |  Список форумов |   Time : 0.082s | 15 Queries | GZIP : Off |
tracker_cron