Часовой пояс: UTC + 3 часа




Начать новую тему Ответить на тему  [ 1 сообщение ] 
Автор Сообщение
СообщениеДобавлено: 2011-12-23 22:33 
Не в сети
Аватара пользователя
Раздал: 1.56 ТБ
Скачал: 3.69 ГБ
Ратио: 431.711


Зарегистрирован: 2011-01-16 12:39
Сообщения: 2464
Доктор Дулиттл / Doctor Dolittle


#777Информация о Фильме
Страна: СШАЖанр: сказка, приключения
Год выпуска: 1967
Продолжительность: 02:25:09
Перевод: Профессиональный (многоголосый закадровый)
Режиссёр: Ричард Флейшер / Richard Fleischer
В ролях: Рекс Харрисон, Саманта Эггар, Энтони Ньюли, Ричард Аттенборо, Питер Булл, Мюриэль Лэндерс, Уильям Дикс, Джеффри Холдер, Портия Нельсон, Норма Варден

Краткое содержание: Один немного тронутый, но добрый и веселый доктор по фамилии Дулиттл замучил всех своих соседей. Он не очень любил общаться с людьми, но зато он помогал, защищал и заботился о разных зверушках и птичках. Мало того, мудрый попугай Полинезия научил доктора разговаривать на 500-х языках, правда не человеческих, а звериных. Когда соседи вконец обалдели от этого «психа», Дулиттл решил проблему радикально — отправился в южные моря, чтобы найти там свое счастье, а также кое-какие сокровища…

Информация о Файле
Качество: DVDRip
Контейнер: AVI
Видео: 640x288 (2.22:1), 25 fps, XviD MPEG-4 ~715 kbps avg, 0.16 bit/pixel
Аудио: 48 kHz, MPEG Layer 3, 2 ch, ~112.00 kbps avg[br][/br]
Format: AVI
Format/Info: Audio Video Interleave
File size: 870 MiB
Duration: 2h 25mn
Overall bit rate: 838 Kbps
Writing application: FairUse Wizard
Writing library: The best and REALLY easy backup tool
Video
ID: 0
Format: MPEG-4 Visual
Format profile: Advanced Simple@L5
Format settings, BVOP: Yes
Format settings, QPel: No
Format settings, GMC: No warppoints
Format settings, Matrix: Default (H.263)
Muxing mode: Packed bitstream
Codec ID: XVID
Codec ID/Hint: XviD
Duration: 2h 25mn
Bit rate: 716 Kbps
Width: 640 pixels
Height: 288 pixels
Display aspect ratio: 2.222
Frame rate: 25.000 fps
Resolution: 8 bits
Colorimetry: 4:2:0
Scan type: Progressive
Bits/(Pixel*Frame): 0.155
Stream size: 743 MiB (85%)
Writing library: XviD 1.1.0 (UTC 2005-11-22)
Audio
ID: 1
Format: MPEG Audio
Format version: Version 1
Format profile: Layer 3
Mode: Joint stereo
Format_Settings_ModeExtension: MS Stereo
Codec ID: 55
Codec ID/Hint: MP3
Duration: 2h 25mn
Bit rate mode: Constant
Bit rate: 112 Kbps
Channel(s): 2 channels
Sampling rate: 48.0 KHz
Stream size: 116 MiB (13%)
Alignment: Aligned on interleaves
Interleave, duration: 40 ms (1.00 video frame)
Interleave, preload duration: 504 ms
Writing library: LAME3.97b
Encoding settings: -m j -V 4 -q 2 -lowpass 16 -b 112

Раздача мультитрекерная, при нуле сидируемых можете смело вставать на закачку!


У вас нет необходимых прав для просмотра вложений в этом сообщении.


Вернуться к началу
 Профиль  
Ответить с цитатой  
  • Торрент
Автор: qwerty90 Хэш: ---
Добавлен: 2011-12-23 22:33 Приватный: Нет (DHT включён)
Статус:
---
Размер: 869.66 МБ (911 906 816 байт)
Изменил:
---
Скачали: 0 (Раздающих: 0%)
Причина:
---
Здоровье: 0%
Сидеров: 0 Личеров: 0
Скорость раздачи: 0 байт/сек Скорость скачивания: 0 байт/сек
Последний сидер: Нет Последний личер: Нет
Для скачивания торрента необходимо зарегистрироваться или войти на трекер.
Показать сообщения за:  Поле сортировки  
Начать новую тему Ответить на тему  [ 1 сообщение ] 

Часовой пояс: UTC + 3 часа


Кто сейчас на конференции

Сейчас этот форум просматривают: нет зарегистрированных пользователей и гости: 1


Вы не можете начинать темы
Вы не можете отвечать на сообщения
Вы не можете редактировать свои сообщения
Вы не можете удалять свои сообщения
Вы не можете добавлять вложения

Найти:
Перейти:  
cron
Переместиться наверх
 Главная |  Список форумов |   Time : 0.088s | 15 Queries | GZIP : Off |
tracker_cron