Часовой пояс: UTC + 3 часа




Начать новую тему Ответить на тему  [ 1 сообщение ] 
Автор Сообщение
СообщениеДобавлено: 2014-04-01 02:13 
Не в сети
Администратор
Администратор
Аватара пользователя
Раздал: 51.58 ТБ
Скачал: 620.08 ГБ
Ратио: 85.182


Зарегистрирован: 2010-11-09 02:24
Сообщения: 44883
Откуда: Земля Санникова
Луна волков / Luna de lobos

#777
Страна: Испания
Жанр: военный, исторический, драма
Год выпуска: 1987
Продолжительность: 01:44:56

Перевод: Субтитры
Cубтитры: русские - petpav
Оригинальная аудиодорожка: испанский

Режиссер: Хулио Санчес Вальдес / Julio Snchez Valds

В ролях: Сантьяго Рамос, Антонио Ресинес, Альваро де Луна, Кити Манвер, Фернандо Виванко, Алисия Агут

Описание: Трагическая история борьбы небольшой группы республиканских партизан,
на протяжении десяти лет (30 - 40 г. г. 20 века) противостоявших франкистскому режиму на севере Испании.

Доп. информация: Фильм снят по повести испанского писателя Хулио Льямазареса "Луна волков". При подготовке субтитров использован текст этого произведения.
Огромная благодарность galina - пользователю одного из испаноязычных сайтов - за помощь при работе над субтитрами.
Рип скачан из сети Интернет.
Сэмпл: http://rusfolder.com/upload/?session=a9d27fac4cf0e009f996f9c8b0718705

Качество видео: DVDRip
Формат видео: AVI

Видео: XVID, 608x352, 1.09 Gb, 25.000 fps, 1271 Kbps
Аудио: MP3, 44.1 KHz, 64.0 Kbps, 2 channels
Формат субтитров: softsub (SRT)


14
00:04:52,402 --> 00:04:54,402
Коровы, пошли, пошли.

15
00:04:57,682 --> 00:04:58,407
Пошли, лентяйки.

16
00:05:07,403 --> 00:05:08,403
Коровы, пошли.

17
00:05:14,804 --> 00:05:15,804
Держи.

18
00:05:24,203 --> 00:05:25,803
Посмотри там, Рамиро.
Рядом с мельницей.

19
00:05:32,004 --> 00:05:33,004
Моя сестра!

20
00:05:33,205 --> 00:05:34,205
Да, Хуана.

21
00:05:35,006 --> 00:05:37,006
Она, должно быть, гонит коров
на луг Лас Льямас.

22
00:05:41,006 --> 00:05:42,006
Я спущусь, решено.

23
00:05:42,007 --> 00:05:43,007
Сейчас?

24
00:05:43,008 --> 00:05:44,008
Сейчас!

25
00:05:44,009 --> 00:05:45,009
Это очень опасно.
Может увидеть кто-нибудь снизу.

26
00:05:45,010 --> 00:05:47,009
Если осторожно, между зарослями
кустарника, то нет.

27
00:05:47,010 --> 00:05:49,410
Я поговорю с Хуаной, чтобы они были готовы,
и этой ночью мы спустимся уже вчетвером.



Общее
Полное имя : Luna_volkov\Luna.volkov.1987.rus.sub.avi
Формат : AVI
Формат/Информация : Audio Video Interleave
Размер файла : 1009 Мбайт
Продолжительность : 1 ч. 44 м.
Общий поток : 1345 Кбит/сек

Видео
Идентификатор : 0
Формат : MPEG-4 Visual
Параметр BVOP формата : 1
Параметр QPel формата : Нет
Параметр GMC формата : Без точки перехода
Параметр матрицы формата : Default (H.263)
Режим смешивания : Сжатый битовый поток
Идентификатор кодека : DX50
Идентификатор кодека/Подсказка : DivX 5
Продолжительность : 1 ч. 44 м.
Битрейт : 1271 Кбит/сек
Ширина : 608 пикселей
Высота : 352 пикселя
Соотношение сторон : 1,727
Частота кадров : 25,000 кадров/сек
Цветовое пространство : YUV
Субдискретизация насыщенности : 4:2:0
Битовая глубина : 8 бит
Тип развёртки : Прогрессивная
Метод сжатия : С потерями
Бит/(Пиксели*Кадры) : 0.238
Размер потока : 954 Мбайт (95%)
Заголовок : Video
Библиотека кодирования : DivX 5.2.1 Alpha (UTC 2004-09-08)

Аудио
Идентификатор : 1
Формат : MPEG Audio
Версия формата : Version 1
Профиль формата : Layer 3
Идентификатор кодека : 55
Идентификатор кодека/Подсказка : MP3
Продолжительность : 1 ч. 44 м.
Вид битрейта : Постоянный
Битрейт : 64,0 Кбит/сек
Каналы : 2 канала
Частота : 44,1 КГц
Метод сжатия : С потерями
Размер потока : 48,0 Мбайт (5%)
Выравнивание : Разделение по промежуткам
Продолжительность промежутка : 40 мс. (1,00 видеокадр)
Время предзагрузки промежутка : 500 мс.
Заголовок : Audio










У вас нет необходимых прав для просмотра вложений в этом сообщении.


Вернуться к началу
 Профиль  
Ответить с цитатой  
  • Торрент
Автор: oartemka178 Хэш: ---
Добавлен: 2014-04-01 02:01 Приватный: Нет (DHT включён)
Статус:
---
Размер: 1009.3 МБ (1 058 327 388 байт)
Изменил:
---
Скачали: 0 (Раздающих: 0%)
Причина:
---
Здоровье: 0%
Сидеров: 0 Личеров: 0
Скорость раздачи: 0 байт/сек Скорость скачивания: 0 байт/сек
Последний сидер: Нет Последний личер: Нет
Для скачивания торрента необходимо зарегистрироваться или войти на трекер.
Показать сообщения за:  Поле сортировки  
Начать новую тему Ответить на тему  [ 1 сообщение ] 

Часовой пояс: UTC + 3 часа


Кто сейчас на конференции

Сейчас этот форум просматривают: нет зарегистрированных пользователей и гости: 1


Вы не можете начинать темы
Вы не можете отвечать на сообщения
Вы не можете редактировать свои сообщения
Вы не можете удалять свои сообщения
Вы не можете добавлять вложения

Найти:
Перейти:  
Переместиться наверх
 Главная |  Список форумов |   Time : 0.076s | 15 Queries | GZIP : Off |
tracker_cron