Часовой пояс: UTC + 3 часа




Начать новую тему Ответить на тему  [ 1 сообщение ] 
Автор Сообщение
СообщениеДобавлено: 2011-12-10 23:01 
Не в сети
Аватара пользователя
Раздал: 1.56 ТБ
Скачал: 3.69 ГБ
Ратио: 431.711


Зарегистрирован: 2011-01-16 12:39
Сообщения: 2464
Врача вызывали?


#777
Год выпуска: 2011
Дата российской премьеры: 26 июня 2011
Жанр: криминальный фильм
Продолжительность: 01:28:52
Режиссёр: Артём Антонов
В ролях: Анатолий Кот, Михаил Морозов, Анна Табанина, Игорь Николаев (II), Мария Мещерякова, Иван Корытов, Вячеслав Аркунов, Сергей Кузнецов, Анна Гарнизонова, Александр Машанов, Евгений Новоселов (II), Дмитрий Сутырин, Анна Пескова, Дмитрий Холод, Олег Кутейников, Валерия Шкирандо, Евгений Савчук, Светлана Киреева, Петр Гаврилюк, Юлия Зоркина, Никита Ханцевич, Валерий Погребной, Алексей Кашников, Илана Исакжанова, Алексей Попретинский, Станислав Соколов (II), Никита Багуров

Краткое содержание: По городу прокатилась волна квартирных краж. Во время одного из налетов был убит продюсер Логинов. Его сосед сообщил оперативникам ценную информацию: около дома он видел карету"Скорой помощи"… Подозрение следователя Шумова сразу пало на сотрудников бригады"скорой" одной из частных клиник, так как все жертвы были клиентами этой клиники и накануне ограблений вызывали"скорую". Внимание следствия было сфокусировано на докторе Иванове - резком, неуживчивом, конфликтном человеке. Когда выяснялось, что именно его бригада выезжала по всем адресам, где совершались кражи, в рабочем кабинете Иванова провели обыск и нашли вещи, принадлежавшие убитому продюсеру. Казалось бы, дело раскрыто, Иванова вот-вот возьмут под стражу, и только два человека - врач-педиатр Наташа и следователь Шумов - не верят в виновность врача...


Информация о раздаче
Качество:TVRip
Контейнер: AVI
Видео: 720x416 (1.73:1), 25 fps, XviD build 50 ~2016 kbps avg, 0.27 bit/pixel
Аудио: 48 kHz, MPEG Layer 3, 2 ch, ~192.00 kbps avg[br][/br]
Формат: AVI
Формат/Информация: Audio Video Interleave
Размер файла: 1,38 Гбайт
Продолжительность: 1 ч. 28 м.
Общий поток: 2222 Кбит/сек
Название фильма: Врача вызывали
Программа кодирования: Lavf52.33.0
Видео
Идентификатор: 0
Формат: MPEG-4 Visual
Профиль формата: Simple@L3
Параметр BVOP формата: Нет
Параметр QPel формата: Нет
Параметр GMC формата: Без точки перехода
Параметр матрицы формата: Default (H.263)
Идентификатор кодека: XVID
Идентификатор кодека/Подсказка: XviD
Продолжительность: 1 ч. 28 м.
Битрейт: 2017 Кбит/сек
Ширина: 720 пикселей
Высота: 416 пикселей
Соотношение сторон: 16:9
Частота кадров: 25,000 кадров/сек
Цветовое пространство: YUV
Субдискретизация насыщенности: 4:2:0
Битовая глубина: 8 бит
Тип развёртки: Прогрессивная
Метод сжатия: С потерями
Бит/(Пиксели*Кадры): 0.269
Размер потока: 1,25 Гбайт (91%)
Библиотека кодирования: XviD 1.2.1 (UTC 2008-12-04)
Аудио
Идентификатор: 1
Формат: MPEG Audio
Версия формата: Version 1
Профиль формата: Layer 3
Режим: Joint stereo
Расширение режима: MS Stereo
Идентификатор кодека: 55
Идентификатор кодека/Подсказка: MP3
Продолжительность: 1 ч. 28 м.
Вид битрейта: Постоянный
Битрейт: 192 Кбит/сек
Каналы: 2 канала
Частота: 48,0 КГц
Метод сжатия: С потерями
Размер потока: 122 Мбайт (9%)
Выравнивание: Соединение по промежуткам
Продолжительность промежутка: 24 мс. (0,60 видеокадр)
Время предзагрузки промежутка: 24 мс.

Раздача мультитрекерная, при нуле сидируемых можете смело вставать на закачку!




У вас нет необходимых прав для просмотра вложений в этом сообщении.


Вернуться к началу
 Профиль  
Ответить с цитатой  
  • Торрент
Автор: qwerty90 Хэш: ---
Добавлен: 2011-12-10 23:01 Приватный: Нет (DHT включён)
Статус:
---
Размер: 1.38 ГБ (1 481 030 622 байт)
Изменил:
---
Скачали: 1 (Раздающих: 0%)
Причина:
---
Здоровье: 0%
Сидеров: 0 Личеров: 0
Скорость раздачи: 0 байт/сек Скорость скачивания: 0 байт/сек
Последний сидер: Нет Последний личер: Нет
Для скачивания торрента необходимо зарегистрироваться или войти на трекер.
Показать сообщения за:  Поле сортировки  
Начать новую тему Ответить на тему  [ 1 сообщение ] 

Часовой пояс: UTC + 3 часа


Кто сейчас на конференции

Сейчас этот форум просматривают: нет зарегистрированных пользователей и гости: 1


Вы не можете начинать темы
Вы не можете отвечать на сообщения
Вы не можете редактировать свои сообщения
Вы не можете удалять свои сообщения
Вы не можете добавлять вложения

Найти:
Перейти:  
cron