BitTorrent Трекер RusTrek.ru
http://rustrek.net/

Чокнутый / Delirious (Том ДиЧилло) [2006, Комедия, драма, мелодрама, WEB-DLRip-AVC | P]
http://rustrek.net/viewtopic.php?f=823&t=82474
Страница 1 из 1

Автор:  Consultants [ 2019-09-06 18:41 ]
Заголовок сообщения:  Чокнутый / Delirious (Том ДиЧилло) [2006, Комедия, драма, мелодрама, WEB-DLRip-AVC | P]

Чокнутый / Delirious


#777

Информация о фильме
Название: Чокнутый
Оригинальное название: Delirious
Год выхода: 2006
Страна: США
Студия: Artina Films, Peace Arch Entertainment Group Inc., Thema Production
Продолжительность: 01:47:01
Перевод: Профессиональный (многоголосый, закадровый) - студия «Велес»
Субтитры: Нет
Жанр: Комедия, драма, мелодрама

Режиссер: Том ДиЧилло

В ролях:
Стив Бушеми, Майкл Питт, Элисон Ломан, Джина Гершон, Калли Торн, Кевин Корригэн, Ричард Шорт, Элвис Костелло, Дэвид Уэйн (II), Мэл Горхэм, Эми Харгривз

О фильме:
Жалкий папарацци Лес Галантин тщится добыть самые сенсационные и компрометирующие снимки знаменитостей. Случайная встреча сводит Леса с бездомным парнем Тоби, который упросил пустить его пожить у фотографа в обмен на бесплатные услуги по хозяйству одинокого Галантина. По дружбе, представляя его своим помощником, Лес таскает Тоби на торжественные церемонии и презентации, погружающие юношу в водоворот шоу бизнеса, которые кружат голову и вселяют ему мечту о кинокарьере. Удача настигает Тоби вместе с любовью к звезде музыкальной сцены Карме Лидс. Предательский поступок Леса вносит в раскол в былую дружбу, а успех Тоби, ставшего звездой телесериалов и не желающего простить проступок друга, сеет у Леса зависть и ненависть к своему протеже…



Файл
Формат: Matroska
Качество: WEB-DLRip-AVC
Видео: 1038x560 at 23.976 fps, x264, ~2963 kbps, 0.213 bpp
Аудио: AC3, 6 ch, ~448 kbps - | Русский | -

***Релиз от: -=DoMiNo=-

x264 info: frame I:1058 Avg QP:16.44 size: 68718
x264 info: frame P:34956 Avg QP:18.04 size: 29531
x264 info: frame B:117930 Avg QP:20.58 size: 11244
x264 info: consecutive B-frames: 1.5% 2.3% 6.3% 41.5% 21.9% 14.4% 5.8% 3.2% 1.7% 0.4% 0.1% 0.7% 0.2%

General
Complete name : Чокнутый.(2006).WEB-DLRip-AVC.[-=DoMiNo=-].mkv
Format : Matroska
Format version : Version 4
File size : 2.60 GiB
Duration : 1 h 47 min
Overall bit rate : 3 480 kb/s
Movie name : Чокнутый
Deion : Слава приходит, когда ее совсем не ждешь
Attachments : poster / poster
ACTORS : Стив Бушеми, Майкл Питт, Элисон Ломан, Джина Гершон, Калли Торн, Кевин Корригэн, Ричард Шорт, Элвис Костелло, Дэвид Уэйн, Мэл Горхэм
COUNTRY : США
DATE : 2006
DIRECTOR : Том ДиЧилло
GENRE : Драма, Мелодрама, Комедия
ITUNEXTC : ru-movie|16+|375|
ORIGINAL_TITLE : Delirious
SYNOPSIS : Жалкий папарацци Лес Галантин тщится добыть самые сенсационные и компрометирующие снимки знаменитостей. Случайная встреча сводит Леса с бездомным парнем Тоби, который упросил пустить его пожить у фотографа в обмен на бесплатные услуги по хозяйству одинокого Галантина.По дружбе, представляя его своим помощником, Лес таскает Тоби на торжественные церемонии и презентации, погружающие юношу в водоворот шоу бизнеса, которые кружат голову и вселяют ему мечту о кинокарьере.Удача настигает Тоби вместе с любовью к звезде музыкальной сцены Карме Лидс. Предательский поступок Леса вносит раскол в былую дружбу, а успех Тоби, ставшего звездой телесериалов и не желающего простить проступок друга, сеет у Леса зависть и ненависть к своему протеже…

Video
ID : 1
Format : AVC
Format/Info : Advanced Video Codec
Format profile : High@L4.1
Format settings : CABAC / 12 Ref Frames
Format settings, CABAC : Yes
Format settings, Reference : 12 frames
Codec ID : V_MPEG4/ISO/AVC
Duration : 1 h 47 min
Bit rate : 2 963 kb/s
Width : 1 038 pixels
Height : 560 pixels
Display aspect ratio : 1.85:1
Frame rate mode : Constant
Frame rate : 23.976 (24000/1001) FPS
Color space : YUV
Chroma subsampling : 4:2:0
Bit depth : 8 bits
Scan type : Progressive
Bits/(Pixel*Frame) : 0.213
Stream size : 2.21 GiB (85%)
Title : RIP_BY_-=DoMiNo=-
Writing library : x264 core 157 r2958 57baac4
Encoding settings : cabac=1 / ref=12 / deblock=1:-2:-2 / analyse=0x3:0x133 / me=umh / subme=10 / psy=1 / psy_rd=1.00:0.15 / mixed_ref=1 / me_range=32 / chroma_me=1 / trellis=2 / 8x8dct=1 / cqm=0 / deadzone=21,11 / fast_pskip=1 / chroma_qp_offset=-3 / threads=5 / lookahead_threads=1 / sliced_threads=0 / nr=0 / decimate=1 / interlaced=0 / bluray_compat=0 / constrained_intra=0 / bframes=12 / b_pyramid=2 / b_adapt=2 / b_bias=0 / direct=1 / weightb=1 / open_gop=0 / weightp=2 / keyint=240 / keyint_min=24 / scenecut=40 / intra_refresh=0 / rc=crf / mbtree=0 / crf=19.0 / qcomp=0.70 / qpmin=0 / qpmax=69 / qpstep=4 / ip_ratio=1.40 / pb_ratio=1.30 / aq=3:0.80
Language : English
Default : Yes
Forced : No
Color range : Limited
Color primaries : BT.709
Transfer characteristics : BT.709
Matrix coefficients : BT.709

Audio
ID : 2
Format : AC-3
Format/Info : Audio Coding 3
Commercial name : Dolby Digital
Codec ID : A_AC3
Duration : 1 h 47 min
Bit rate mode : Constant
Bit rate : 448 kb/s
Channel(s) : 6 channels
Channel layout : L R C LFE Ls Rs
Sampling rate : 48.0 kHz
Frame rate : 31.250 FPS (1536 SPF)
Bit depth : 16 bits
Compression mode : Lossy
Stream size : 343 MiB (13%)
Language : Russian
Service kind : Complete Main
Default : Yes
Forced : No

Menu
00:00:00.000 : :Глава 1
00:08:42.522 : :Глава 2
00:15:36.936 : :Глава 3
00:24:15.454 : :Глава 4
00:32:37.956 : :Глава 5
00:38:54.332 : :Глава 6
00:48:20.898 : :Глава 7
00:55:43.340 : :Глава 8
01:03:33.810 : :Глава 9
01:13:16.392 : :Глава 10
01:21:16.872 : :Глава 11
01:27:45.260 : :Глава 12
01:33:35.610 : :Глава 13
01:38:31.906 : :Глава 14
01:42:08.122 : :Глава 15

Страница 1 из 1 Часовой пояс: UTC + 3 часа
Powered by phpBB® Forum Software © phpBB Group
https://www.phpbb.com/