Часовой пояс: UTC + 3 часа




Начать новую тему Ответить на тему  [ 1 сообщение ] 
Автор Сообщение
СообщениеДобавлено: 2019-10-19 10:37 
Не в сети
Администратор
Администратор
Аватара пользователя
Раздал: 80 КБ
Скачал: 0 байт
Ратио: Seed.


Зарегистрирован: 2010-01-16 12:34
Сообщения: 356
Сверх(НЕ)естественное / Extra Ordinary


#777

Год выпуска: 2019
Страна: Ирландия, Бельгия
Продолжительность: 01:34:09
Перевод: Дублированный | iTunes

Субтитры: Русские (Full)
Жанр: Ужасы, фэнтези, комедия

Режиссер: Майк Ахерн, Энда Логман

В ролях:
Маив Хиггинс, Бэрри Уорд, Уилл Форте, Клаудия О’Доэрти, Джэми Бимиш, Терри Чандлер, Ристерд Купер, Эмма Коулман, Кэрри Краули, Мэри МакЭвой, Сара О'Фаррелл, Агата Эллис, Валери О’Коннор

Описание:
Скромная Роуз обладает экстрасенсорными способностями, но соседи достают ее лишь просьбами изгнать духов надоедливых родственников. Однажды в ее родном городке объявляется рок-звезда Кристиан Уинтер. Наделенный дьявольской силой, он околдовывает местную девушку, и ее отец в отчаянии просит Роуз о помощи. У героини появляется шанс раскрыть свой дар, а заодно устроить личную жизнь.



Качество: WEB-DL 1080p
Формат: MKV

Видео: MPEG-4 AVC, 1920x804, 4456 Кбит/с, 24.000 fps
Аудио#1: Russian: AC3, 48.0 KHz, 6 ch, 384 Кбит/с - iTunes
Аудио#2: English: AC3, 48.0 KHz, 6 ch, 384 Кбит/с - Original
         
 

General
Unique ID : 131032209904516786470827279526022696146 (0x6293E2BB7E83186A6DAFF66D63614CD2)
Complete name : Extra.Ordinary.2019.WEB-DL.DD5.1.x264.mkv
Format : Matroska
Format version : Version 4 / Version 2
File size : 3.51 GiB
Duration : 1 h 34 min
Overall bit rate : 5 330 kb/s
Encoded date : UTC 2019-10-18 07:21:52
Writing application : mkvmerge v37.0.0 ('Leave It') 64-bit
Writing library : libebml v1.3.9 + libmatroska v1.5.2

Video
ID : 1
Format : AVC
Format/Info : Advanced Video Codec
Format profile : High@L4
Format settings, CABAC : Yes
Format settings, RefFrames : 5 frames
Codec ID : V_MPEG4/ISO/AVC
Duration : 1 h 34 min
Bit rate : 4 456 kb/s
Width : 1 920 pixels
Height : 804 pixels
Display aspect ratio : 2.40:1
Frame rate mode : Constant
Frame rate : 24.000 FPS
Color space : YUV
Chroma subsampling : 4:2:0
Bit depth : 8 bits
Scan type : Progressive
Bits/(Pixel*Frame) : 0.120
Stream size : 2.93 GiB (84%)
Language : English
Default : Yes
Forced : No
Color range : Limited
Color primaries : BT.709
Transfer characteristics : BT.709
Matrix coefficients : BT.709

Audio #1
ID : 2
Format : AC-3
Format/Info : Audio Coding 3
Format settings, Endianness : Big
Codec ID : A_AC3
Duration : 1 h 34 min
Bit rate mode : Constant
Bit rate : 384 kb/s
Channel(s) : 6 channels
Channel positions : Front: L C R, Side: L R, LFE
Sampling rate : 48.0 kHz
Frame rate : 31.250 FPS (1536 SPF)
Bit depth : 16 bits
Compression mode : Lossy
Delay relative to video : -42 ms
Stream size : 259 MiB (7%)
Language : Russian
Service kind : Complete Main
Default : Yes
Forced : Yes

Audio #2
ID : 3
Format : AC-3
Format/Info : Audio Coding 3
Format settings, Endianness : Big
Codec ID : A_AC3
Duration : 1 h 34 min
Bit rate mode : Constant
Bit rate : 384 kb/s
Channel(s) : 6 channels
Channel positions : Front: L C R, Side: L R, LFE
Sampling rate : 48.0 kHz
Frame rate : 31.250 FPS (1536 SPF)
Bit depth : 16 bits
Compression mode : Lossy
Delay relative to video : -42 ms
Stream size : 259 MiB (7%)
Language : English
Service kind : Complete Main
Default : No
Forced : No

Text
ID : 4
Format : UTF-8
Codec ID : S_TEXT/UTF8
Codec ID/Info : UTF-8 Plain Text
Title : Full
Language : Russian
Default : No
Forced : No

Menu
00:00:00.000 : en:Глава 1
00:04:57.458 : en:Глава 2
00:10:07.541 : en:Глава 3
00:15:18.373 : en:Глава 4
00:20:11.663 : en:Глава 5
00:27:04.788 : en:Глава 6
00:35:02.704 : en:Глава 7
00:43:10.370 : en:Глава 8
00:51:57.661 : en:Глава 9
00:59:50.327 : en:Глава 10
01:06:35.535 : en:Глава 11
01:11:33.243 : en:Глава 12
01:17:13.743 : en:Глава 13
01:28:52.450 : en:Глава 14


У вас нет необходимых прав для просмотра вложений в этом сообщении.


Вернуться к началу
 Профиль  
Ответить с цитатой  
  • Торрент
Автор: Admin Хэш: ---
Добавлен: 2019-10-19 10:37 Приватный: Нет (DHT включён)
Статус: Проверен
Размер: 3.51 ГБ (3 764 064 859 байт)
Изменил:
---
Скачали: 258 (Раздающих: 0%)
Причина:
---
Здоровье: 100%
Сидеров: 9 Личеров: 1
Скорость раздачи: 0 байт/сек Скорость скачивания: 0 байт/сек
Последний сидер: 2 часа 27 минут 2 секунды назад Последний личер: 2 часа 27 минут 2 секунды назад
Для скачивания торрента необходимо зарегистрироваться или войти на трекер.
Показать сообщения за:  Поле сортировки  
Начать новую тему Ответить на тему  [ 1 сообщение ] 

Часовой пояс: UTC + 3 часа


Кто сейчас на конференции

Сейчас этот форум просматривают: нет зарегистрированных пользователей и гости: 1


Вы не можете начинать темы
Вы не можете отвечать на сообщения
Вы не можете редактировать свои сообщения
Вы не можете удалять свои сообщения
Вы не можете добавлять вложения

Найти:
Перейти:  
cron
cron