Часовой пояс: UTC + 3 часа




Начать новую тему Ответить на тему  [ 1 сообщение ] 
Автор Сообщение
СообщениеДобавлено: 2019-11-29 09:20 
Не в сети
Администратор
Администратор
Аватара пользователя
Раздал: 1.21 ТБ
Скачал: 1.76 ГБ
Ратио: 707.565


Зарегистрирован: 2014-03-16 00:45
Сообщения: 2572
Курьер / The Courier


#777

Информация о фильме
Название: Курьер
Оригинальное название: The Courier
Год выхода: 2019
Страна: США, Великобритания
Студия: Lionsgate
Продолжительность: 01:39:34
Перевод: любительский (двухголосый закадровый) Iriano@qwerty

Жанр: боевик, драма

Режиссер: Закари Адлер / Zackary Adler

В ролях: Ольга Куриленко, Гари Олдман, Уильям Моусли, Дермот Малруни, Алисия Агнесон, Амит Шах

О фильме:
Она - курьер на мотоцикле, развозит посылки по ночному Лондону. И именно она помогает выжить единственному свидетелю, который должен дать показания на криминального босса



Сэмпл http://sendfile.su/1531292

Файл
Кодек: AVC
Качество: WebDLRip
Видео: 1280*720 23,976 fps 2616 kbps bt 0,118
Звук: 44,1 кГ, ac3, 6 ch, 384 kb/c

Формат : Matroska
Версия формата : Version 4
Размер файла : 2,09 Гбайт
Продолжительность : 1 ч. 39 м.
Режим общего битрейта : Переменный
Общий поток : 3002 Кбит/сек

Видео
Идентификатор : 1
Формат : AVC
Формат/Информация : Advanced Video Codec
Профиль формата : Main@L3.2
Настройки формата : CABAC / 3 Ref Frames
Параметр CABAC формата : Да
Параметр RefFrames формата : 3 кадра
Идентификатор кодека : V_MPEG4/ISO/AVC
Продолжительность : 1 ч. 39 м.
Вид битрейта : Переменный
Битрейт : 2616 Кбит/сек
Максимальный битрейт : 5000 Кбит/сек
Ширина : 1280 пикселей
Высота : 720 пикселей
Соотношение сторон : 16:9
Режим частоты кадров : Постоянный
Частота кадров : 23,976 (24000/1001) кадра/сек
Стандарт вещания : NTSC
Цветовое пространство : YUV
Субдискретизация насыщенности : 4:2:0
Битовая глубина : 8 бит
Тип развёртки : Прогрессивная
Бит/(Пиксели*Кадры) : 0.118
Размер потока : 1,82 Гбайт (87%)
Аудио
Формат : AC-3
Формат/Информация : Audio Coding 3
Идентификатор кодека : A_AC3
Продолжительность : 1 ч. 39 м.
Вид битрейта : Постоянный
Битрейт : 384 Кбит/сек
Каналы : 6 каналов
ChannelLayout : L R C LFE Ls Rs
Частота : 44,1 КГц
Частота кадров : 28,711 кадров/сек (1536 SPF)
Битовая глубина : 16 бит
Метод сжатия : С потерями
Размер потока : 274 Мбайт (13%)
Язык : Russian



У вас нет необходимых прав для просмотра вложений в этом сообщении.


Вернуться к началу
 Профиль  
Ответить с цитатой  
  • Торрент
Автор: Consultants Хэш: ---
Добавлен: 2019-11-29 09:20 Приватный: Нет (DHT включён)
Статус: Проверен
Размер: 2.09 ГБ (2 242 339 975 байт)
Изменил:
---
Скачали: 0 (Раздающих: 0%)
Причина:
---
Здоровье: 0%
Сидеров: 0 Личеров: 0
Скорость раздачи: 0 байт/сек Скорость скачивания: 0 байт/сек
Последний сидер: Нет Последний личер: Нет
Для скачивания торрента необходимо зарегистрироваться или войти на трекер.
Показать сообщения за:  Поле сортировки  
Начать новую тему Ответить на тему  [ 1 сообщение ] 

Часовой пояс: UTC + 3 часа


Кто сейчас на конференции

Сейчас этот форум просматривают: нет зарегистрированных пользователей и гости: 4


Вы не можете начинать темы
Вы не можете отвечать на сообщения
Вы не можете редактировать свои сообщения
Вы не можете удалять свои сообщения
Вы не можете добавлять вложения

Найти:
Перейти:  
cron
cron