Часовой пояс: UTC + 3 часа




Начать новую тему Ответить на тему  [ 1 сообщение ] 
Автор Сообщение
СообщениеДобавлено: 2020-01-08 01:34 
Не в сети
Администратор
Администратор
Аватара пользователя
Раздал: 1.24 ТБ
Скачал: 2.7 ГБ
Ратио: 470.569


Зарегистрирован: 2014-03-16 00:45
Сообщения: 2995
Город-бомба / Bomb City


#777
Информация о фильме
Название: Город-бомба
Оригинальное название: Bomb City
Год выхода: 2017
Страна: США
Студия: 3rd Identity Films, Bomb City Film
Продолжительность: 01:38:29
Перевод: Профессиональный (многоголосый, закадровый) HDRezka Studio, авторский (одноголосый, закадровый) М.Яроцкий (kyberpunk)
Жанр: драма, криминал

Режиссер: Джэми Брукс

В ролях:
Дэйв Дэвис, Гленн Моршауэр, Логан Хаффман, Лорелей Линклейтер, Эдди Хэсселл, Henry Knotts, Доминик Райан Гэбриел, Люк Шелтон, Мэймэй Ренфроу, Майкл Сэйтц

О фильме:
О культурной неприязни к группе панков в консервативном Техасе. Чем дальше заходит их борьба с ненавистью, тем больше она напоминает парад насилия и жестокости, ставя под вопрос моральные устои, на которых держится американское правосудие.




Файл
Кодек: x264
Качество: BDRip 720p [Bomb.City.2017.1080p.BluRay.REMUX.AVC.DTS-HD.MA.5.1-FGT]
Видео: 1280x536 (2.40:1), 23.976fps, MPEG-4 AVC, 3860 kb/s, 0.235 bit/pixel
Звук:
#1: Dolby AC3 48000Hz 6ch 448kbps - MVO - HDRezka Studio [rus]
#2: Dolby AC3 48000Hz 6ch 448kbps - AVO - М.Яроцкий (kyberpunk) [rus]
#3: Dolby AC3 48000Hz 6ch 448kbps - Original [eng]
Субтитры: Русские (песни), английские

Кто-то писал:
Перевод Михаила Яроцкого доступен благодаря: iVov4ik, mestereo2110, iNstIGGAtor, marshall cogburn, Mednik, stimco, petrena, СэМ, naromdvd, vupen, miklob. Работа со звуком Переводман

General
Unique ID : 185011363854192911603293851605850323824 (0x8B2FE47F75866032037B69567B4EFB70)
Complete name : Город-бомба - Bomb City (2017) BDRip 720p.mkv
Format : Matroska
Format version : Version 4 / Version 2
File size : 3.62 GiB
Duration : 1 h 38 min
Overall bit rate : 5 267 kb/s
Movie name : Bomb City (2017)
Encoded date : UTC 2020-01-07 18:13:18
Writing application : mkvmerge v42.0.0 ('Overtime') 64-bit
Writing library : libebml v1.3.10 + libmatroska v1.5.2

Video
ID : 1
Format : AVC
Format/Info : Advanced Video Codec
Format profile : High@L4.1
Format settings, CABAC : Yes
Format settings, RefFrames : 9 frames
Codec ID : V_MPEG4/ISO/AVC
Duration : 1 h 38 min
Bit rate : 3 860 kb/s
Width : 1 280 pixels
Height : 536 pixels
Display aspect ratio : 2.40:1
Frame rate mode : Constant
Frame rate : 23.976 (24000/1001) FPS
Color space : YUV
Chroma subsampling : 4:2:0
Bit depth : 8 bits
Scan type : Progressive
Bits/(Pixel*Frame) : 0.235
Stream size : 2.66 GiB (73%)
Writing library : x264 core 155 r2901 7d0ff22
Encoding settings : cabac=1 / ref=9 / deblock=1:-3:-3 / analyse=0x3:0x113 / me=umh / subme=11 / psy=1 / psy_rd=1.00:0.00 / mixed_ref=1 / me_range=32 / chroma_me=1 / trellis=2 / 8x8dct=1 / cqm=0 / deadzone=21,11 /

fast_pskip=1 / chroma_qp_offset=-4 / threads=6 / lookahead_threads=1 / sliced_threads=0 / nr=0 / decimate=1 / interlaced=0 / bluray_compat=0 / constrained_intra=0 / bframes=9 / b_pyramid=2 / b_adapt=2 / b_bias=0 / direct=1 / weightb=1 /

open_gop=0 / weightp=2 / keyint=240 / keyint_min=23 / scenecut=40 / intra_refresh=0 / rc_lookahead=40 / rc=crf / mbtree=1 / crf=15.0 / qcomp=0.60 / qpmin=10 / qpmax=69 / qpstep=4 / vbv_maxrate=50000 / vbv_bufsize=62500 / crf_max=0.0 /

nal_hrd=none / filler=0 / ip_ratio=1.40 / aq=1:0.90
Language : English
Default : Yes
Forced : No

Audio #1
ID : 2
Format : AC-3
Format/Info : Audio Coding 3
Format settings, Endianness : Big
Codec ID : A_AC3
Duration : 1 h 38 min
Bit rate mode : Constant
Bit rate : 448 kb/s
Channel(s) : 6 channels
Channel positions : Front: L C R, Side: L R, LFE
Sampling rate : 48.0 kHz
Frame rate : 31.250 FPS (1536 SPF)
Bit depth : 16 bits
Compression mode : Lossy
Stream size : 316 MiB (9%)
Title : MVO - HDRezka Studio
Language : Russian
Service kind : Complete Main
Default : Yes
Forced : No

Audio #2
ID : 3
Format : AC-3
Format/Info : Audio Coding 3
Format settings, Endianness : Big
Codec ID : A_AC3
Duration : 1 h 38 min
Bit rate mode : Constant
Bit rate : 448 kb/s
Channel(s) : 6 channels
Channel positions : Front: L C R, Side: L R, LFE
Sampling rate : 48.0 kHz
Frame rate : 31.250 FPS (1536 SPF)
Bit depth : 16 bits
Compression mode : Lossy
Stream size : 316 MiB (9%)
Title : AVO - М.Яроцкий (kyberpunk)
Language : Russian
Service kind : Complete Main
Default : No
Forced : No

Audio #3
ID : 4
Format : AC-3
Format/Info : Audio Coding 3
Format settings, Endianness : Big
Codec ID : A_AC3
Duration : 1 h 38 min
Bit rate mode : Constant
Bit rate : 448 kb/s
Channel(s) : 6 channels
Channel positions : Front: L C R, Side: L R, LFE
Sampling rate : 48.0 kHz
Frame rate : 31.250 FPS (1536 SPF)
Bit depth : 16 bits
Compression mode : Lossy
Stream size : 316 MiB (9%)
Title : Original
Language : English
Service kind : Complete Main
Default : No
Forced : No

Text #1
ID : 5
Format : UTF-8
Codec ID : S_TEXT/UTF8
Codec ID/Info : UTF-8 Plain Text
Duration : 1 h 37 min
Bit rate : 5 b/s
Count of elements : 109
Stream size : 3.91 KiB (0%)
Title : Песни
Language : Russian
Default : Yes
Forced : No

Text #2
ID : 6
Format : PGS
Muxing mode : zlib
Codec ID : S_HDMV/PGS
Codec ID/Info : Picture based subtitle format used on BDs/HD-DVDs
Duration : 1 h 38 min
Bit rate : 95.7 kb/s
Count of elements : 3484
Stream size : 67.2 MiB (2%)
Title : English
Language : English
Default : No
Forced : No

Menu
00:00:00.000 : en:Chapter 01
00:10:02.184 : en:Chapter 02
00:19:27.124 : en:Chapter 03
00:31:26.092 : en:Chapter 04
00:45:07.788 : en:Chapter 05
00:56:29.094 : en:Chapter 06
01:06:48.838 : en:Chapter 07
01:16:41.597 : en:Chapter 08
01:26:24.387 : en:Chapter 09



У вас нет необходимых прав для просмотра вложений в этом сообщении.


Вернуться к началу
 Профиль  
Ответить с цитатой  
  • Торрент
Автор: Consultants Хэш: ---
Добавлен: 2020-01-08 01:34 Приватный: Нет (DHT включён)
Статус: Проверен
Размер: 3.62 ГБ (3 890 421 658 байт)
Изменил:
---
Скачали: 388 (Раздающих: 0%)
Причина:
---
Здоровье: 100%
Сидеров: 1 Личеров: 0
Скорость раздачи: 0 байт/сек Скорость скачивания: 0 байт/сек
Последний сидер: 22 дня 20 часов 6 минут 52 секунды назад Последний личер: Нет
Для скачивания торрента необходимо зарегистрироваться или войти на трекер.
Показать сообщения за:  Поле сортировки  
Начать новую тему Ответить на тему  [ 1 сообщение ] 

Часовой пояс: UTC + 3 часа


Кто сейчас на конференции

Сейчас этот форум просматривают: нет зарегистрированных пользователей и гости: 4


Вы не можете начинать темы
Вы не можете отвечать на сообщения
Вы не можете редактировать свои сообщения
Вы не можете удалять свои сообщения
Вы не можете добавлять вложения

Найти:
Перейти:  
cron
Переместиться наверх
 Главная |  Список форумов |   Time : 0.102s | 15 Queries | GZIP : Off |
tracker_cron