Часовой пояс: UTC + 3 часа




Начать новую тему Ответить на тему  [ 1 сообщение ] 
Автор Сообщение
СообщениеДобавлено: 2020-02-10 20:31 
Не в сети
Администратор
Администратор
Аватара пользователя
Раздал: 147.55 ТБ
Скачал: 20.77 ГБ
Ратио: 7272.774


Зарегистрирован: 2010-01-16 12:34
Сообщения: 750
Паразиты / Parasite / Gisaengchung


#777

Информация о фильме
Название: Паразиты
Оригинальное название: Gisaengchung
Год выхода: 2019
Страна: Корея Южная
Студия: Barunson E&A, CJ E&M Film Financing & Investment Entertainment & Comics, CJ Entertainment
Продолжительность: 02:12:00
Перевод: Дублированный [iTunes], Профессиональный (многоголосый, закадровый) [HDRezka Studio], авторский одноголосый [Ю. Сербин]
Жанр: Триллер, комедия, драма

Режиссер: Чжун Хо Пон

В ролях: Кан Хо Сон, Сон Гён Ли, Ё Чжон Чо, У Шик Чхве, Со Дам Пак, Хе Джин Чан, Джи Со Чон, Хён Джун Чон, Джон Ын Ли, Со Чжун Пак

О фильме:
Обычное корейское семейство жизнь не балует. Приходится жить в сыром грязном полуподвале, воровать интернет у соседей и перебиваться случайными подработками. Однажды друг сына семейства, уезжая на стажировку за границу, предлагает парнишке заменить его и поработать репетитором у старшеклассницы в богатой семье Пак. Подделав диплом о высшем образовании, парень отправляется в шикарный дизайнерский особняк и производит на хозяйку дома хорошее впечатление. Тут же ему в голову приходит необычный план по трудоустройству сестры.




Файл
Качество: BDRip 1080p
Видео: AVC/H.264, 1920x804, 7985 Кbps, 23,976 fps
Звук:
Аудио 1: AC3, 6 ch, 384 Kbps - Русский (DUB)
Аудио 2: AC3, 2 ch, 192 Kbps - Русский (MVO HDRezka Studio)
Аудио 3: AC3, 2 ch, 384 Kbps - Русский (AVO Сербин)
Аудио 4: AC3, 6 ch, 640 Kbps - Корейский
Субтитры: русские (форс, полные), английские (полные)

x264 [info]: frame I:1103 Avg QP:14.92 size:239354
x264 [info]: frame P:41066 Avg QP:17.70 size: 82243
x264 [info]: frame B:147739 Avg QP:18.76 size: 28851
x264 [info]: consecutive B-frames: 1.9% 2.4% 7.6% 20.9% 17.8% 37.1% 7.7% 2.4% 1.3% 1.0%

Общее
Уникальный идентификатор : 260123783564691894589966865977852283997 (0xC3B204B5F52D08BED5A1D8F3FA1FCC5D)
Полное имя : Gisaengchung (Parasite).2019.BDRip.1080p.W.mkv
Формат : Matroska
Версия формата : Version 4
Размер файла : 8,84 Гбайт
Продолжительность : 2 ч. 12 м.
Общий поток : 9585 Кбит/сек
Название фильма : Gisaengchung (Parasite).2019.BDRip.1080p.W
Дата кодирования : UTC 2019-11-29 20:25:35
Программа кодирования : mkvmerge v23.0.0 ('The Bride Said No') 64-bit
Библиотека кодирования : libebml v1.3.6 + libmatroska v1.4.9
Обложка : Yes
Attachments : cover_land.jpg / small_cover.jpg / small_cover_land.jpg / cover.jpg

Видео
Идентификатор : 1
Формат : AVC
Формат/Информация : Advanced Video Codec
Профиль формата : High@L4.1
Настройки формата : CABAC / 5 Ref Frames
Параметр CABAC формата : Да
Параметр RefFrames формата : 5 кадров
Идентификатор кодека : V_MPEG4/ISO/AVC
Продолжительность : 2 ч. 12 м.
Битрейт : 7985 Кбит/сек
Ширина : 1920 пикселей
Высота : 804 пикселя
Соотношение сторон : 2,40:1
Режим частоты кадров : Постоянный
Частота кадров : 23,976 (23976/1000) кадра/сек
Цветовое пространство : YUV
Субдискретизация насыщенности : 4:2:0
Битовая глубина : 8 бит
Тип развёртки : Прогрессивная
Бит/(Пиксели*Кадры) : 0.216
Размер потока : 7,36 Гбайт (83%)
Заголовок : rip by -=walledol=-
Библиотека кодирования : x264 core 158 r2988 7817004
Настройки программы : cabac=1 / ref=5 / deblock=1:-3:-3 / analyse=0x3:0x133 / me=umh / subme=11 / psy=1 / psy_rd=1.00:0.10 / mixed_ref=1 / me_range=32 / chroma_me=1 / trellis=2 / 8x8dct=1 / cqm=0 / deadzone=21,11 / fast_pskip=0 / chroma_qp_offset=-3 / threads=12 / lookahead_threads=2 / sliced_threads=0 / nr=0 / decimate=1 / interlaced=0 / bluray_compat=0 / constrained_intra=0 / bframes=9 / b_pyramid=2 / b_adapt=2 / b_bias=0 / direct=3 / weightb=1 / open_gop=0 / weightp=2 / keyint=240 / keyint_min=23 / scenecut=40 / intra_refresh=0 / rc_lookahead=60 / rc=2pass / mbtree=0 / bitrate=7985 / ratetol=1.0 / qcomp=0.60 / qpmin=0 / qpmax=69 / qpstep=4 / cplxblur=20.0 / qblur=0.5 / vbv_maxrate=30000 / vbv_bufsize=33000 / nal_hrd=none / filler=0 / ip_ratio=1.40 / pb_ratio=1.30 / aq=3:0.80 / zones=182702,189908,q=40
Язык : Korean
Default : Да
Forced : Нет

Аудио #1
Идентификатор : 2
Формат : AC-3
Формат/Информация : Audio Coding 3
Коммерческое название : Dolby Digital
Идентификатор кодека : A_AC3
Продолжительность : 2 ч. 11 м.
Вид битрейта : Постоянный
Битрейт : 384 Кбит/сек
Каналы : 6 каналов
ChannelLayout : L R C LFE Ls Rs
Частота : 48,0 КГц
Частота кадров : 31,250 кадров/сек (1536 SPF)
Метод сжатия : С потерями
Размер потока : 362 Мбайт (4%)
Заголовок : DUB | iTunes
Язык : Russian
ServiceKind : Complete Main
Default : Да
Forced : Нет

Аудио #2
Идентификатор : 3
Формат : AC-3
Формат/Информация : Audio Coding 3
Коммерческое название : Dolby Digital
Идентификатор кодека : A_AC3
Продолжительность : 2 ч. 11 м.
Вид битрейта : Постоянный
Битрейт : 192 Кбит/сек
Каналы : 2 канала
ChannelLayout : L R
Частота : 48,0 КГц
Частота кадров : 31,250 кадров/сек (1536 SPF)
Метод сжатия : С потерями
Размер потока : 181 Мбайт (2%)
Заголовок : MVO (HDRezka Studio)
Язык : Russian
ServiceKind : Complete Main
Default : Нет
Forced : Нет

Аудио #3
Идентификатор : 4
Формат : AC-3
Формат/Информация : Audio Coding 3
Коммерческое название : Dolby Digital
Идентификатор кодека : A_AC3
Продолжительность : 2 ч. 11 м.
Вид битрейта : Постоянный
Битрейт : 384 Кбит/сек
Каналы : 2 канала
ChannelLayout : L R
Частота : 48,0 КГц
Частота кадров : 31,250 кадров/сек (1536 SPF)
Метод сжатия : С потерями
Размер потока : 362 Мбайт (4%)
Заголовок : AVO (Сербин)
Язык : Russian
ServiceKind : Complete Main
Default : Нет
Forced : Нет

Аудио #4
Идентификатор : 5
Формат : AC-3
Формат/Информация : Audio Coding 3
Коммерческое название : Dolby Digital
Идентификатор кодека : A_AC3
Продолжительность : 2 ч. 12 м.
Вид битрейта : Постоянный
Битрейт : 640 Кбит/сек
Каналы : 6 каналов
ChannelLayout : L R C LFE Ls Rs
Частота : 48,0 КГц
Частота кадров : 31,250 кадров/сек (1536 SPF)
Метод сжатия : С потерями
Размер потока : 604 Мбайт (7%)
Язык : Korean
ServiceKind : Complete Main
Default : Нет
Forced : Нет

Текст #1
Идентификатор : 6
Формат : UTF-8
Идентификатор кодека : S_TEXT/UTF8
Идентификатор кодека/Информация : UTF-8 Plain Text
Продолжительность : 1 ч. 51 м.
Битрейт : 0 бит/сек
ElementCount : 6
Размер потока : 458 байт (0%)
Заголовок : Forced
Язык : Russian
Default : Да
Forced : Нет

Текст #2
Идентификатор : 7
Формат : UTF-8
Идентификатор кодека : S_TEXT/UTF8
Идентификатор кодека/Информация : UTF-8 Plain Text
Продолжительность : 2 ч. 5 м.
Битрейт : 87 бит/сек
ElementCount : 1637
Размер потока : 80,4 Кбайт (0%)
Заголовок : Full (Focs)
Язык : Russian
Default : Нет
Forced : Нет

Текст #3
Идентификатор : 8
Формат : UTF-8
Идентификатор кодека : S_TEXT/UTF8
Идентификатор кодека/Информация : UTF-8 Plain Text
Продолжительность : 2 ч. 5 м.
Битрейт : 91 бит/сек
ElementCount : 1637
Размер потока : 83,9 Кбайт (0%)
Заголовок : Full (kornickolay)
Язык : Russian
Default : Нет
Forced : Нет

Текст #4
Идентификатор : 9
Формат : UTF-8
Идентификатор кодека : S_TEXT/UTF8
Идентификатор кодека/Информация : UTF-8 Plain Text
Продолжительность : 2 ч. 5 м.
Битрейт : 53 бит/сек
ElementCount : 1647
Размер потока : 49,3 Кбайт (0%)
Заголовок : Full
Язык : English
Default : Нет
Forced : Нет

Меню
00:00:00.000 : en:Chapter 1
00:05:44.802 : en:Chapter 2
00:12:16.610 : en:Chapter 3
00:20:35.484 : en:Chapter 4
00:29:21.926 : en:Chapter 5
00:37:05.348 : en:Chapter 6
00:46:19.943 : en:Chapter 7
00:53:52.979 : en:Chapter 8
01:02:55.646 : en:Chapter 9
01:12:10.242 : en:Chapter 10
01:23:25.834 : en:Chapter 11
01:32:19.659 : en:Chapter 12
01:41:22.284 : en:Chapter 13
01:48:21.912 : en:Chapter 14
01:56:07.502 : en:Chapter 15
02:07:06.744 : en:Chapter 16



У вас нет необходимых прав для просмотра вложений в этом сообщении.


Вернуться к началу
 Профиль  
Ответить с цитатой  
  • Торрент
Автор: Admin Хэш: ---
Добавлен: 2020-02-10 20:31 Приватный: Нет (DHT включён)
Статус: Проверен
Размер: 8.84 ГБ (9 490 357 585 байт)
Изменил:
---
Скачали: 98248 (Раздающих: 0%)
Причина:
---
Здоровье: 100%
Сидеров: 1131 Личеров: 17
Скорость раздачи: 0 байт/сек Скорость скачивания: 0 байт/сек
Последний сидер: 2 месяца 21 день 23 часа 12 секунд назад Последний личер: 2 месяца 21 день 23 часа 12 секунд назад
Для скачивания торрента необходимо зарегистрироваться или войти на трекер.
Показать сообщения за:  Поле сортировки  
Начать новую тему Ответить на тему  [ 1 сообщение ] 

Часовой пояс: UTC + 3 часа


Кто сейчас на конференции

Сейчас этот форум просматривают: нет зарегистрированных пользователей и гости: 5


Вы не можете начинать темы
Вы не можете отвечать на сообщения
Вы не можете редактировать свои сообщения
Вы не можете удалять свои сообщения
Вы не можете добавлять вложения

Найти:
Перейти:  
Переместиться наверх
 Главная |  Список форумов |   Time : 0.091s | 17 Queries | GZIP : Off |
tracker_cron