BitTorrent Трекер RusTrek.ru
http://rustrek.net/

Пропавшие девушки / Lost Girls (Лиз Гарбус) [2020, драма, детектив, триллер, WEB-DL 1080p | L1]
http://rustrek.net/viewtopic.php?f=823&t=84216
Страница 1 из 1

Автор:  Admin [ 2020-03-24 22:20 ]
Заголовок сообщения:  Пропавшие девушки / Lost Girls (Лиз Гарбус) [2020, драма, детектив, триллер, WEB-DL 1080p | L1]

Пропавшие девушки / Lost Girls


#777

Информация о фильме
Название: Пропавшие девушки
Оригинальное название: Lost Girls
Год выхода: 2020
Страна: США
Продолжительность: 01:35:24
Перевод: любительский (одноголосый закадровый) datynet
Субтитры: русские, английские, французские, немецкие, испанские, китайские
Оригинальная аудиодорожка: английский
Жанр: драма, детектив, триллер

Режиссер: Лиз Гарбус

В ролях:
Эми Райан, Томасин МакКензи, Гэбриел Бирн, Дин Уинтерс, Лола Кёрк, Кевин Корригэн, Уна Лоуренс, Мириам Шор, Росаль Колон, Рид Бирни и др.

Описание:
Отчаявшись ждать помощи от полиции, женщина берётся лично расследовать исчезновение своей дочери. Одновременно она обнаруживает серию жестоких убийств секс-работниц.



Файл
Качество: WEB-DL 1080p
Видео: MPEG-4 AVC, 1080p, 1920:1080 (16:9), 3480 kbps, 23.976 fps
Аудио 1: АС3, 2 ch, 48 kHz, 192 kbps, 16 bits datynet
Аудио 2: Е-AC3+Atmos, 6 ch, 48 kHz, 768 kbps, 16 bits English


General
Unique ID : 162603114519300557346815069139749524703 (0x7A543881C88124A7F03FE857916F54DF)
Complete name : Lost.Girls.2020.NF.WEB-DL.1080p.mkv
Format : Matroska
Format version : Version 4 / Version 2
File size : 2.94 GiB
Duration : 1 h 35 min
Overall bit rate mode : Variable
Overall bit rate : 4 410 kb/s
Encoded date : UTC 2020-03-23 12:48:53
Writing application : mkvmerge v20.0.0 ('I Am The Sun') 64-bit
Writing library : libebml v1.3.5 + libmatroska v1.4.8

Video
ID : 1
Format : AVC
Format/Info : Advanced Video Codec
Format profile : Main@L4
Format settings : CABAC / 3 Ref Frames
Format settings, CABAC : Yes
Format settings, RefFrames : 3 frames
Codec ID : V_MPEG4/ISO/AVC
Duration : 1 h 35 min
Bit rate mode : Variable
Bit rate : 3 480 kb/s
Maximum bit rate : 5 220 kb/s
Width : 1 920 pixels
Height : 1 080 pixels
Display aspect ratio : 16:9
Frame rate mode : Constant
Frame rate : 23.976 (24000/1001) FPS
Color space : YUV
Chroma subsampling : 4:2:0
Bit depth : 8 bits
Scan type : Progressive
Bits/(Pixel*Frame) : 0.070
Stream size : 2.30 GiB (78%)
Writing library : x264 core 148 r2717 0d2410d
Encoding settings : cabac=1 / ref=3 / deblock=1:0:0 / analyse=0x1:0x111 / me=umh / subme=10 / psy=1 / psy_rd=1.00:0.00 / mixed_ref=1 / me_range=24 / chroma_me=1 / trellis=2 / 8x8dct=0 / cqm=0 / deadzone=21,11 / fast_pskip=1 / chroma_qp_offset=-2 / threads=6 / lookahead_threads=1 / sliced_threads=0 / nr=0 / decimate=1 / interlaced=0 / bluray_compat=0 / stitchable=1 / constrained_intra=0 / bframes=2 / b_pyramid=0 / b_adapt=2 / b_bias=0 / direct=3 / weightb=1 / open_gop=0 / weightp=2 / keyint=250 / keyint_min=23 / scenecut=0 / intra_refresh=0 / rc_lookahead=48 / rc=2pass / mbtree=1 / bitrate=3480 / ratetol=1.0 / qcomp=0.50 / qpmin=6 / qpmax=51 / qpstep=4 / cplxblur=20.0 / qblur=0.5 / vbv_maxrate=5220 / vbv_bufsize=6960 / nal_hrd=vbr / filler=0 / ip_ratio=1.40 / aq=1:1.00
Language : English
Default : Yes
Forced : No

Audio #1
ID : 2
Format : AC-3
Format/Info : Audio Coding 3
Codec ID : A_AC3
Duration : 1 h 35 min
Bit rate mode : Constant
Bit rate : 192 kb/s
Channel(s) : 2 channels
Channel positions : Front: L R
Sampling rate : 48.0 kHz
Frame rate : 31.250 FPS (1536 SPF)
Bit depth : 16 bits
Compression mode : Lossy
Stream size : 131 MiB (4%)
Title : VO datynet
Language : Russian
Service kind : Complete Main
Default : Yes
Forced : No

Audio #2
ID : 3
Format : E-AC-3
Format/Info : Enhanced Audio Coding 3
Format profile : E-AC-3+Atmos / E-AC-3
Codec ID : A_EAC3
Duration : 1 h 35 min
Bit rate mode : Constant
Bit rate : 768 kb/s
Channel(s) : 15 objects / 6 channels
Channel positions : 15 objects / Front: L C R, Side: L R, LFE
Sampling rate : 48.0 kHz
Frame rate : 187.500 FPS (256 SPF)
Compression mode : Lossy
Stream size : 524 MiB (17%)
Language : English
Service kind : Complete Main
Default : No
Forced : No

Text #1
ID : 4
Format : UTF-8
Codec ID : S_TEXT/UTF8
Codec ID/Info : UTF-8 Plain Text
Duration : 1 h 34 min
Bit rate : 82 b/s
Count of elements : 1067
Stream size : 56.8 KiB (0%)
Language : Russian
Default : No
Forced : No

Text #2
ID : 5
Format : UTF-8
Codec ID : S_TEXT/UTF8
Codec ID/Info : UTF-8 Plain Text
Duration : 1 h 33 min
Bit rate : 61 b/s
Count of elements : 1151
Stream size : 42.3 KiB (0%)
Language : English
Default : No
Forced : No

Text #3
ID : 6
Format : UTF-8
Codec ID : S_TEXT/UTF8
Codec ID/Info : UTF-8 Plain Text
Duration : 1 h 34 min
Bit rate : 52 b/s
Count of elements : 1034
Stream size : 36.0 KiB (0%)
Language : French
Default : No
Forced : No

Text #4
ID : 7
Format : UTF-8
Codec ID : S_TEXT/UTF8
Codec ID/Info : UTF-8 Plain Text
Duration : 1 h 34 min
Bit rate : 53 b/s
Count of elements : 982
Stream size : 36.9 KiB (0%)
Language : German
Default : No
Forced : No

Text #5
ID : 8
Format : UTF-8
Codec ID : S_TEXT/UTF8
Codec ID/Info : UTF-8 Plain Text
Duration : 1 h 34 min
Bit rate : 56 b/s
Count of elements : 1054
Stream size : 39.3 KiB (0%)
Title : European
Language : Spanish
Default : No
Forced : No

Text #6
ID : 9
Format : UTF-8
Codec ID : S_TEXT/UTF8
Codec ID/Info : UTF-8 Plain Text
Duration : 1 h 34 min
Bit rate : 55 b/s
Count of elements : 1080
Stream size : 38.1 KiB (0%)
Title : Simplified
Language : Chinese
Default : No
Forced : No

Страница 1 из 1 Часовой пояс: UTC + 3 часа
Powered by phpBB® Forum Software © phpBB Group
https://www.phpbb.com/