Часовой пояс: UTC + 3 часа




Начать новую тему Ответить на тему  [ 1 сообщение ] 
Автор Сообщение
СообщениеДобавлено: 2020-05-08 22:23 
В сети
Администратор
Администратор
Аватара пользователя
Раздал: 1.24 ТБ
Скачал: 2.7 ГБ
Ратио: 470.569


Зарегистрирован: 2014-03-16 00:45
Сообщения: 2982
Опасная ложь / Dangerous Lies


#777

Информация о фильме
Название: Опасная ложь
Оригинальное название: Dangerous Lies
Год выхода: 2020
Страна: США
Продолжительность: 01:37:08
Перевод: Профессиональный (многоголосый, закадровый) | Flarrow Films
Жанр: триллер, драма, детектив

Режиссер: Майкл Скотт

В ролях:
Джейми Чанг, Кэм Жиганде, Саша Александр, Эллиотт Гулд, Камила Мендес, Джесси Ашер, Гарфилд Уилсон, Ник Пурча, Тревор Лернер

О фильме:
Когда богатый пожилой мужчина умирает и неожиданно оставляет все имущество своей новой сиделке, девушка оказывается втянутой в сеть обмана и убийств. Если она хочет выжить, ей придется разобраться в мотивах каждого вокруг, включая тех, кого она любит.




Файл
Формат: MKV
Кодек: MPEG-4 AVC
Качество: WEBRip 1080p
Видео: 1920х1080, ~ 4 740 kb/s, 24.000 FPS, 8 bits
Аудио (русский): AC-3, 320 kb/s, 2 channels, 48.0 kHz
Субтитры: Отсутствуют
Релиз от: Flarrow Films



General
Unique ID : 92690438696960784580326778737956589460 (0x45BB87760358E1D2EA0BCAB8EC9D8F94)
Complete name : Dangerous.Lies.2020.Flarrow.Films.mkv
Format : Matroska
Format version : Version 4
File size : 2.33 GiB
Duration : 1 h 37 min
Overall bit rate mode : Variable
Overall bit rate : 3 434 kb/s
Encoded date : UTC 2020-05-07 19:00:50
Writing application : mkvmerge v32.0.0 ('Astral Progressions') 64-bit
Writing library : libebml v1.3.7 + libmatroska v1.5.0

Video
ID : 1
Format : AVC
Format/Info : Advanced Video Codec
Format profile : Main@L4
Format settings : CABAC / 3 Ref Frames
Format settings, CABAC : Yes
Format settings, Reference : 3 frames
Codec ID : V_MPEG4/ISO/AVC
Duration : 1 h 37 min
Bit rate mode : Variable
Bit rate : 3 160 kb/s
Maximum bit rate : 4 740 kb/s
Width : 1 920 pixels
Height : 1 080 pixels
Display aspect ratio : 16:9
Frame rate mode : Constant
Frame rate : 24.000 FPS
Color space : YUV
Chroma subsampling : 4:2:0
Bit depth : 8 bits
Scan type : Progressive
Bits/(Pixel*Frame) : 0.063
Stream size : 2.11 GiB (91%)
Writing library : x264 core 148 r2717 0d2410d
Encoding settings : cabac=1 / ref=3 / deblock=1:0:0 / analyse=0x1:0x111 / me=umh / subme=10 / psy=1 / psy_rd=1.00:0.00 / mixed_ref=1 / me_range=24 / chroma_me=1 / trellis=2 / 8x8dct=0 / cqm=0 / deadzone=21,11 / fast_pskip=1 / chroma_qp_offset=-2 / threads=8 / lookahead_threads=1 / sliced_threads=0 / nr=0 / decimate=1 / interlaced=0 / bluray_compat=0 / stitchable=1 / constrained_intra=0 / bframes=2 / b_pyramid=0 / b_adapt=2 / b_bias=0 / direct=3 / weightb=1 / open_gop=0 / weightp=2 / keyint=250 / keyint_min=24 / scenecut=0 / intra_refresh=0 / rc_lookahead=48 / rc=2pass / mbtree=1 / bitrate=3160 / ratetol=1.0 / qcomp=0.50 / qpmin=6 / qpmax=51 / qpstep=4 / cplxblur=20.0 / qblur=0.5 / vbv_maxrate=4740 / vbv_bufsize=6320 / nal_hrd=vbr / filler=0 / ip_ratio=1.40 / aq=1:1.00
Language : English
Default : Yes
Forced : No

Audio
ID : 2
Format : AC-3
Format/Info : Audio Coding 3
Commercial name : Dolby Digital
Codec ID : A_AC3
Duration : 1 h 37 min
Bit rate mode : Constant
Bit rate : 320 kb/s
Channel(s) : 2 channels
Channel layout : L R
Sampling rate : 48.0 kHz
Frame rate : 31.250 FPS (1536 SPF)
Compression mode : Lossy
Stream size : 222 MiB (9%)
Service kind : Complete Main
Default : Yes
Forced : No




У вас нет необходимых прав для просмотра вложений в этом сообщении.


Вернуться к началу
 Профиль  
Ответить с цитатой  
  • Торрент
Автор: Consultants Хэш: ---
Добавлен: 2020-05-08 22:23 Приватный: Нет (DHT включён)
Статус: Проверен
Размер: 2.33 ГБ (2 502 268 976 байт)
Изменил:
---
Скачали: 363 (Раздающих: 0%)
Причина:
---
Здоровье: 100%
Сидеров: 155 Личеров: 58
Скорость раздачи: 0 байт/сек Скорость скачивания: 0 байт/сек
Последний сидер: 17 дней 3 минуты 48 секунд назад Последний личер: 17 дней 3 минуты 48 секунд назад
Для скачивания торрента необходимо зарегистрироваться или войти на трекер.
Показать сообщения за:  Поле сортировки  
Начать новую тему Ответить на тему  [ 1 сообщение ] 

Часовой пояс: UTC + 3 часа


Кто сейчас на конференции

Сейчас этот форум просматривают: нет зарегистрированных пользователей и гости: 3


Вы не можете начинать темы
Вы не можете отвечать на сообщения
Вы не можете редактировать свои сообщения
Вы не можете удалять свои сообщения
Вы не можете добавлять вложения

Найти:
Перейти:  
Переместиться наверх
 Главная |  Список форумов |   Time : 0.085s | 15 Queries | GZIP : Off |
tracker_cron