Часовой пояс: UTC + 3 часа




Начать новую тему Ответить на тему  [ 1 сообщение ] 
Автор Сообщение
СообщениеДобавлено: 2020-05-23 23:00 
Не в сети
Администратор
Администратор
Аватара пользователя
Раздал: 1.24 ТБ
Скачал: 2.7 ГБ
Ратио: 470.569


Зарегистрирован: 2014-03-16 00:45
Сообщения: 2978
Другая Жизнь / Other Life


#777

Информация о фильме
Название: ДругаяЖизнь
Оригинальное название: OtherLife
Год выхода: 2017
Страна: Австралия
Студия: Cherry Road Films LLC, Head Gear Films, Kreo Films FZ, Metrol Technology, See Pictures, Ticket to Ride, WBMC
Продолжительность: 01:35:55
Перевод: любительский многоголосый, закадровый ["Синема УС"]
Жанр: фантастика, триллер, криминал, детектив

Режиссер: Бен С. Лукас

В ролях: Джессика Де Гау, Томас Кокерел, Т.Дж. Пауэр, Шалом Брюн-Фрэнклин, Лайам Грэхэм, Анна Филп, Тириел Мора, Кларенс Джон Райан

О фильме:
Рэн Амари — главный изобретатель нового революционного препарата. ДругаяЖизнь расширяет восприятие времени и создаёт виртуальную реальность в голове человека. С ДругойЖизнью доли секунд в реальном времени ощущаются, как часы или дни. Пока Рэн и её коллеги пытаются запустить препарат в производство, правительство решает использовать его как радикальное решение для переполненных тюрем. С помощью препарата можно создать виртуальные камеры, где преступники могут отбывать долгий срок всего за минуты в реальном времени. Рэн идёт против правительства и оказывается в тюремной клетке собственного разума.



Семпл

Файл
Кодек: H.264
Качество: WEBRip 720p
Видео: AVC, 1280x536 (2.40:1), 23.976 fps ~ 1905 Kbps
Звук:
AC3, 48 KHz, 2 ch ~ 192 Kb/s (русский)
AC3, 48 KHz, 6 ch ~ 384 Kb/s (английский)
Субтитры: английские

Общее
Уникальный идентификатор : 191054373964812437430362564186085119629 (0x8FBBBBE646ECC6508D69092C8CF9D68D)
Полное имя : Q:TorFotherlife.2017.webrip.720p.mkv
Формат : Matroska
Версия формата : Version 2
Размер файла : 1,70 Гбайт
Продолжительность : 1 ч. 35 м.
Общий поток : 2534 Кбит/сек
Дата кодирования : UTC 2018-12-28 15:58:01
Программа кодирования : mkvmerge v5.4.0 ('Piper') built on Mar 10 2012 13:34:39
Библиотека кодирования : libebml v1.2.3 + libmatroska v1.3.0

Видео
Идентификатор : 1
Формат : AVC
Формат/Информация : Advanced Video Codec
Профиль формата : High@L4.1
Параметр CABAC формата : Да
Параметр ReFrames формата : 5 кадров
Идентификатор кодека : V_MPEG4/ISO/AVC
Продолжительность : 1 ч. 35 м.
Битрейт : 1907 Кбит/сек
Ширина : 1280 пикселей
Высота : 536 пикселей
Соотношение сторон : 2,40:1
Частота кадров : 23,976 кадра/сек
Цветовое пространство : YUV
Субдискретизация насыщенности : 4:2:0
Битовая глубина : 8 бит
Тип развёртки : Прогрессивная
Бит/(Пиксели*Кадры) : 0.116
Размер потока : 1,28 Гбайт (75%)
Библиотека кодирования : x264 core 152 r2851 ba24899
Настройки программы : cabac=1 / ref=5 / deblock=1:-3:-3 / analyse=0x3:0x133 / me=umh / subme=10 / psy=1 / psy_rd=1.05:0.15 / mixed_ref=1 / me_range=16 / chroma_me=1 / trellis=2 / 8x8dct=1 / cqm=0 / deadzone=21,11 / fast_pskip=0 / chroma_qp_offset=-3 / threads=12 / lookahead_threads=1 / sliced_threads=0 / nr=0 / decimate=1 / interlaced=0 / bluray_compat=0 / constrained_intra=0 / bframes=3 / b_pyramid=2 / b_adapt=2 / b_bias=0 / direct=3 / weightb=1 / open_gop=0 / weightp=2 / keyint=250 / keyint_min=24 / scenecut=40 / intra_refresh=0 / rc_lookahead=50 / rc=crf / mbtree=1 / crf=18.0 / qcomp=0.60 / qpmin=0 / qpmax=69 / qpstep=4 / ip_ratio=1.40 / aq=3:0.65
Язык : English
Default : Да
Forced : Нет

Аудио #1
Идентификатор : 2
Формат : AC-3
Формат/Информация : Audio Coding 3
Расширение режима : CM (complete main)
Идентификатор кодека : A_AC3
Продолжительность : 1 ч. 35 м.
Вид битрейта : Постоянный
Битрейт : 192 Кбит/сек
Каналы : 2 канала
Расположение каналов : Front: L R
Частота : 48,0 КГц
Битовая глубина : 16 бит
Метод сжатия : С потерями
Задержка видео : 28 мс.
Размер потока : 132 Мбайт (8%)
Язык : Russian
Default : Да
Forced : Нет

Аудио #2
Идентификатор : 3
Формат : AC-3
Формат/Информация : Audio Coding 3
Расширение режима : CM (complete main)
Идентификатор кодека : A_AC3
Продолжительность : 1 ч. 35 м.
Вид битрейта : Постоянный
Битрейт : 384 Кбит/сек
Каналы : 6 каналов
Расположение каналов : Front: L C R, Side: L R, LFE
Частота : 48,0 КГц
Битовая глубина : 16 бит
Метод сжатия : С потерями
Размер потока : 263 Мбайт (15%)
Язык : English
Default : Нет
Forced : Нет

Текст
Идентификатор : 4
Формат : UTF-8
Идентификатор кодека : S_TEXT/UTF8
Идентификатор кодека/Информация : UTF-8 Plain Text
Язык : English
Default : Нет
Forced : Нет


У вас нет необходимых прав для просмотра вложений в этом сообщении.


Вернуться к началу
 Профиль  
Ответить с цитатой  
  • Торрент
Автор: Consultants Хэш: ---
Добавлен: 2020-05-23 23:00 Приватный: Нет (DHT включён)
Статус: Проверен
Размер: 1.7 ГБ (1 822 646 893 байт)
Изменил:
---
Скачали: 913 (Раздающих: 0%)
Причина:
---
Здоровье: 100%
Сидеров: 19 Личеров: 0
Скорость раздачи: 0 байт/сек Скорость скачивания: 0 байт/сек
Последний сидер: 16 дней 22 часа 46 минут 50 секунд назад Последний личер: Нет
Для скачивания торрента необходимо зарегистрироваться или войти на трекер.
Показать сообщения за:  Поле сортировки  
Начать новую тему Ответить на тему  [ 1 сообщение ] 

Часовой пояс: UTC + 3 часа


Кто сейчас на конференции

Сейчас этот форум просматривают: нет зарегистрированных пользователей и гости: 2


Вы не можете начинать темы
Вы не можете отвечать на сообщения
Вы не можете редактировать свои сообщения
Вы не можете удалять свои сообщения
Вы не можете добавлять вложения

Найти:
Перейти:  
Переместиться наверх
 Главная |  Список форумов |   Time : 0.085s | 15 Queries | GZIP : Off |
tracker_cron