Часовой пояс: UTC + 3 часа




Начать новую тему Ответить на тему  [ 1 сообщение ] 
Автор Сообщение
СообщениеДобавлено: 2020-05-27 11:33 
Не в сети
Супермодератор
Супермодератор
Аватара пользователя
Раздал: 3.04 ГБ
Скачал: 0 байт
Ратио: Seed.


Зарегистрирован: 2018-11-16 11:27
Сообщения: 89
Разлом времени / Кривизна / Curvature


#777

Информация о фильме
Название: Разлом времени
Альтернативное название: Кривизна
Оригинальное название: Curvature
Год выхода: 2017
Страна: США
Продолжительность: 01:28:46
Перевод: Дублированный | iTunes
Жанр: фантастика, триллер, детектив

Режиссер: Диего Халливис

В ролях:
Линда Хэмилтон, Линдси Фонсека, Гленн Моршауэр, Ной Бин, Зак Эйвери, Алекс Лани, Барри Малхолланд, Жозефин Эль, Мэтт Хадсон, Джек Норман

О фильме:
Хелен работает инженером в высокотехнологичной компании, которая занимается исследованием возможности путешествия во времени. Её муж Уэллс, работавший вместе с ней, погиб при странных обстоятельствах. После этой трагедии, к Хелен обращается коллега Уэллса Томас, который рассказывает, что перед гибелью её мужа им удалось взломать код, позволяющий перемещаться во времени.
Однажды в её доме раздается странный телефонный звонок, голос в трубке предупреждает её об опасности, призывая не открывать дверь и сейчас же покинуть дом. Что-то явно не так… Особенно, если учесть тот факт, что женский голос в телефонной трубке поразительно напоминает её собственный…




Цифровой релиз (в России): 07 мая 2020

Файл
Формат: MKV
Кодек: MPEG-4 AVC
Качество: WEB-DL 1080p
Видео: 1920x804, ~ 4 531 kb/s, 8 bits, 23.976 FPS
Аудио #1 (русский): AC-3, 384 kb/s, 6 ch (L R C LFE Ls Rs), 48.0 kHz
Аудио #2 (английский): AC-3, 384 kb/s, 6 ch (L R C LFE Ls Rs), 48.0 kHz
Субтитры: отсутствуют
Навигация по главам: есть





General
Unique ID : 303533774342986852236923046284519982085 (0xE45A7A7FE4CC56FDDCD5D47752BEC405)
Complete name : [KORSARS]_Curvature.WEB-DL.1080p.iTunes.mkv
Format : Matroska
Format version : Version 4
File size : 3.29 GiB
Duration : 1 h 28 min
Overall bit rate : 5 301 kb/s
Movie name : [KORSARS]_Curvature.WEB-DL.1080p.iTunes
Encoded date : UTC 2020-05-26 20:11:20
Writing application : mkvmerge v45.0.0 ('Heaven in Pennies') 64-bit
Writing library : libebml v1.3.10 + libmatroska v1.5.2

Video
ID : 1
Format : AVC
Format/Info : Advanced Video Codec
Format profile : High@L4
Format settings : CABAC / 5 Ref Frames
Format settings, CABAC : Yes
Format settings, Reference : 5 frames
Codec ID : V_MPEG4/ISO/AVC
Duration : 1 h 28 min
Bit rate : 4 531 kb/s
Width : 1 920 pixels
Height : 804 pixels
Display aspect ratio : 2.40:1
Frame rate mode : Constant
Frame rate : 23.976 FPS
Color space : YUV
Chroma subsampling : 4:2:0
Bit depth : 8 bits
Scan type : Progressive
Bits/(Pixel*Frame) : 0.122
Stream size : 2.81 GiB (85%)
Language : Russian
Default : Yes
Forced : No
Color range : Limited
Color primaries : BT.709
Transfer characteristics : BT.709
Matrix coefficients : BT.709

Audio #1
ID : 2
Format : AC-3
Format/Info : Audio Coding 3
Commercial name : Dolby Digital
Codec ID : A_AC3
Duration : 1 h 28 min
Bit rate mode : Constant
Bit rate : 384 kb/s
Channel(s) : 6 channels
Channel layout : L R C LFE Ls Rs
Sampling rate : 48.0 kHz
Frame rate : 31.250 FPS (1536 SPF)
Compression mode : Lossy
Delay relative to video : -42 ms
Stream size : 244 MiB (7%)
Language : Russian
Service kind : Complete Main
Default : Yes
Forced : No

Audio #2
ID : 3
Format : AC-3
Format/Info : Audio Coding 3
Commercial name : Dolby Digital
Codec ID : A_AC3
Duration : 1 h 28 min
Bit rate mode : Constant
Bit rate : 384 kb/s
Channel(s) : 6 channels
Channel layout : L R C LFE Ls Rs
Sampling rate : 48.0 kHz
Frame rate : 31.250 FPS (1536 SPF)
Compression mode : Lossy
Delay relative to video : -42 ms
Stream size : 244 MiB (7%)
Language : English
Service kind : Complete Main
Default : No
Forced : No

Menu
00:00:00.000 : ru:Глава 1
00:08:07.487 : ru:Глава 2
00:16:30.615 : ru:Глава 3
00:24:57.078 : ru:Глава 4
00:33:14.200 : ru:Глава 5
00:41:22.812 : ru:Глава 6
00:49:45.730 : ru:Глава 7
00:59:04.497 : ru:Глава 8
01:07:33.672 : ru:Глава 9
01:15:55.507 : ru:Глава 10





У вас нет необходимых прав для просмотра вложений в этом сообщении.


Вернуться к началу
 Профиль  
Ответить с цитатой  
  • Торрент
Автор: Klingon Хэш: ---
Добавлен: 2020-05-27 11:33 Приватный: Нет (DHT включён)
Статус: Проверен
Размер: 3.29 ГБ (3 529 703 979 байт)
Изменил:
---
Скачали: 0 (Раздающих: 0%)
Причина:
---
Здоровье: 0%
Сидеров: 0 Личеров: 0
Скорость раздачи: 0 байт/сек Скорость скачивания: 0 байт/сек
Последний сидер: Нет Последний личер: Нет
Для скачивания торрента необходимо зарегистрироваться или войти на трекер.
Показать сообщения за:  Поле сортировки  
Начать новую тему Ответить на тему  [ 1 сообщение ] 

Часовой пояс: UTC + 3 часа


Кто сейчас на конференции

Сейчас этот форум просматривают: нет зарегистрированных пользователей и гости: 4


Вы не можете начинать темы
Вы не можете отвечать на сообщения
Вы не можете редактировать свои сообщения
Вы не можете удалять свои сообщения
Вы не можете добавлять вложения

Найти:
Перейти:  
Переместиться наверх
 Главная |  Список форумов |   Time : 0.081s | 17 Queries | GZIP : Off |
tracker_cron