Часовой пояс: UTC + 3 часа




Начать новую тему Ответить на тему  [ 1 сообщение ] 
Автор Сообщение
СообщениеДобавлено: 2020-06-12 12:19 
Не в сети
Администратор
Администратор
Аватара пользователя
Раздал: 1.24 ТБ
Скачал: 2.7 ГБ
Ратио: 470.569


Зарегистрирован: 2014-03-16 00:45
Сообщения: 2920
Ритм-секция / The Rhythm Section


#777

Информация о фильме
Название: Ритм-секция
Оригинальное название: The Rhythm Section
Год выхода: 2020
Страна: Великобритания, Испания, США
Студия: Babieka, Eon Productions, IM Global
Продолжительность: 01:49:37
Перевод: Дублированный | iTunes
Жанр: Боевик, триллер, драма, детектив

Режиссер: Рид Морано

В ролях:
Блэйк Лайвли, Джуд Лоу, Стерлинг К. Браун, Дэниэл Мейс, Макс Каселла, Джофф Белл, Раза Джеффри, Ричард Брэйк, Джейд Аноука, Джек МакЭвой

О фильме: Жизнь Стефани Патрик в одночасье рушится, когда вся ее семья гибнет в авиакатастрофе. Узнав о том, что крушение не было случайностью, она решает собственноручно добиться справедливости и отомстить виновным за смерть своих любимых.



Качество: BDRip 720p
Видео: MPEG-4 AVC, 1280x536, 6010 Kbit/s, 23.976 fps
Аудио #01: 48 kHz, AC3, 5.1, 384 Kbps | iTunes | RUS |
Аудио #02: 48 kHz, AC3, 5.1, 640 Kbps | Оригинал | ENG |
Субтитры: Русские (Forced, full), украинские (Full), английские



General
Unique ID : 235373195897391371766079493738344745319 (0xB1133A861607F9B0E066257D52000967)
Complete name : E:Video111The.Rhythm.Section.2020.BDRip.720p.seleZen.mkv
Format : Matroska
Format version : Version 4
File size : 5.39 GiB
Duration : 1 h 49 min
Overall bit rate : 7 035 kb/s
Movie name : The Rhythm Section 2020 from селезень
Encoded date : UTC 2020-06-10 19:02:59
Writing application : mkvmerge v40.0.0 ('Old Town Road + Pony') 64-bit
Writing library : libebml v1.3.9 + libmatroska v1.5.2

Video
ID : 1
Format : AVC
Format/Info : Advanced Video Codec
Format profile : High@L4.1
Format settings : CABAC / 12 Ref Frames
Format settings, CABAC : Yes
Format settings, Reference : 12 frames
Codec ID : V_MPEG4/ISO/AVC
Duration : 1 h 49 min
Bit rate : 6 010 kb/s
Width : 1 280 pixels
Height : 536 pixels
Display aspect ratio : 2.40:1
Frame rate mode : Constant
Frame rate : 23.976 (24000/1001) FPS
Color space : YUV
Chroma subsampling : 4:2:0
Bit depth : 8 bits
Scan type : Progressive
Bits/(Pixel*Frame) : 0.365
Stream size : 4.60 GiB (85%)
Title : playHD
Writing library : x264 core 158 r2984 3759fcb
Encoding settings : cabac=1 / ref=12 / deblock=1:-3:-3 / analyse=0x3:0x133 / me=umh / subme=10 / psy=1 / psy_rd=1.00:0.00 / mixed_ref=1 / me_range=32 / chroma_me=1 / trellis=2 / 8x8dct=1 / cqm=0 / deadzone=21,11 / fast_pskip=0 / chroma_qp_offset=-2 / threads=6 / lookahead_threads=1 / sliced_threads=0 / nr=0 / decimate=0 / interlaced=0 / bluray_compat=0 / constrained_intra=0 / bframes=9 / b_pyramid=2 / b_adapt=2 / b_bias=0 / direct=3 / weightb=1 / open_gop=0 / weightp=2 / keyint=250 / keyint_min=23 / scenecut=40 / intra_refresh=0 / rc=crf / mbtree=0 / crf=14.6 / qcomp=0.60 / qpmin=0 / qpmax=69 / qpstep=4 / ip_ratio=1.30 / pb_ratio=1.20 / aq=3:0.80
Language : English
Default : Yes
Forced : No

Audio #1
ID : 2
Format : AC-3
Format/Info : Audio Coding 3
Commercial name : Dolby Digital
Codec ID : A_AC3
Duration : 1 h 49 min
Bit rate mode : Constant
Bit rate : 384 kb/s
Channel(s) : 6 channels
Channel layout : L R C LFE Ls Rs
Sampling rate : 48.0 kHz
Frame rate : 31.250 FPS (1536 SPF)
Compression mode : Lossy
Stream size : 301 MiB (5%)
Title : iTunes
Language : Russian
Service kind : Complete Main
Default : Yes
Forced : Yes

Audio #2
ID : 3
Format : AC-3
Format/Info : Audio Coding 3
Commercial name : Dolby Digital
Codec ID : A_AC3
Duration : 1 h 49 min
Bit rate mode : Constant
Bit rate : 640 kb/s
Channel(s) : 6 channels
Channel layout : L R C LFE Ls Rs
Sampling rate : 48.0 kHz
Frame rate : 31.250 FPS (1536 SPF)
Compression mode : Lossy
Stream size : 502 MiB (9%)
Title : Original
Language : English
Service kind : Complete Main
Default : No
Forced : No

Text #1
ID : 4
Format : UTF-8
Codec ID : S_TEXT/UTF8
Codec ID/Info : UTF-8 Plain Text
Duration : 1 h 48 min
Bit rate : 2 b/s
Count of elements : 38
Stream size : 1.62 KiB (0%)
Title : Forced
Language : Russian
Default : Yes
Forced : Yes

Text #2
ID : 5
Format : UTF-8
Codec ID : S_TEXT/UTF8
Codec ID/Info : UTF-8 Plain Text
Duration : 1 h 48 min
Bit rate : 43 b/s
Count of elements : 793
Stream size : 34.2 KiB (0%)
Title : Full
Language : Russian
Default : No
Forced : No

Text #3
ID : 6
Format : UTF-8
Codec ID : S_TEXT/UTF8
Codec ID/Info : UTF-8 Plain Text
Duration : 1 h 48 min
Bit rate : 45 b/s
Count of elements : 799
Stream size : 35.7 KiB (0%)
Title : Full
Language : Ukrainian
Default : No
Forced : No

Text #4
ID : 7
Format : UTF-8
Codec ID : S_TEXT/UTF8
Codec ID/Info : UTF-8 Plain Text
Duration : 1 h 43 min
Bit rate : 29 b/s
Count of elements : 794
Stream size : 22.8 KiB (0%)
Language : English
Default : No
Forced : No

Menu
00:00:00.000 : :Chapter 01
00:07:35.705 : :Chapter 02
00:14:47.929 : :Chapter 03
00:21:54.021 : :Chapter 04
00:27:57.801 : :Chapter 05
00:34:52.424 : :Chapter 06
00:41:21.979 : :Chapter 07
00:51:05.688 : :Chapter 08
01:00:17.447 : :Chapter 09
01:10:20.591 : :Chapter 10
01:19:52.246 : :Chapter 11
01:28:41.858 : :Chapter 12
01:37:57.914 : :Chapter 13
01:44:26.635 : :Chapter 14


Релиз от:



У вас нет необходимых прав для просмотра вложений в этом сообщении.


Вернуться к началу
 Профиль  
Ответить с цитатой  
  • Торрент
Автор: Consultants Хэш: ---
Добавлен: 2020-06-12 12:19 Приватный: Нет (DHT включён)
Статус: Проверен
Размер: 5.39 ГБ (5 784 271 733 байт)
Изменил:
---
Скачали: 1509 (Раздающих: 0%)
Причина:
---
Здоровье: 100%
Сидеров: 459 Личеров: 93
Скорость раздачи: 0 байт/сек Скорость скачивания: 0 байт/сек
Последний сидер: 23 часа 37 минут 57 секунд назад Последний личер: 23 часа 37 минут 57 секунд назад
Для скачивания торрента необходимо зарегистрироваться или войти на трекер.
Показать сообщения за:  Поле сортировки  
Начать новую тему Ответить на тему  [ 1 сообщение ] 

Часовой пояс: UTC + 3 часа


Кто сейчас на конференции

Сейчас этот форум просматривают: нет зарегистрированных пользователей и гости: 2


Вы не можете начинать темы
Вы не можете отвечать на сообщения
Вы не можете редактировать свои сообщения
Вы не можете удалять свои сообщения
Вы не можете добавлять вложения

Найти:
Перейти:  
cron
Переместиться наверх
 Главная |  Список форумов |   Time : 0.088s | 15 Queries | GZIP : Off |
tracker_cron