Часовой пояс: UTC + 3 часа




Начать новую тему Ответить на тему  [ 1 сообщение ] 
Автор Сообщение
СообщениеДобавлено: 2020-07-11 14:28 
Не в сети
Администратор
Администратор
Аватара пользователя
Раздал: 1.24 ТБ
Скачал: 2.7 ГБ
Ратио: 470.569


Зарегистрирован: 2014-03-16 00:45
Сообщения: 2990
Ад / El infierno


#777

Информация о фильме
Название: Ад
Оригинальное название: El infierno
Год выхода: 2010
Выпущено: Мексика
Продолжительность: 02:28:48
Перевод: Авторский (одноголосый закадровый) Ю.Немахов + Любительский (одноголосный закадровый) Gopstarrr
Жанр: боевик, драма, комедия, криминал, эротика

Режиссер: Луис Эстрада

В ролях:
Дамиан Альказар, Хоакин Косио, Эрнесто Гомес Крус, Мария Рохо, Элизабет Сервантес, Даниэль Хименес Качо, Хорхе Сарате, Сальвадор Санчес, Анджелина Пелаез, Кристиан Феррер

О фильме:
Бенджамин «Бенни» Гарсия, прожив 20 лет в США, депортирован в свою родную деревню на севере Мексики. Возратившись в дом, он видит картину опустошения. Все — от священника до мэра города связаны с наркоторговлей. Ему предлагают заняться тем же. Сначала он сопротивляется, но не найдя нормально оплачиваемую работу, в итоге Бенни получает «классную работу», а заодно деньги, веселье и девочек. Но вскоре Бенни понимает, что криминальная жизнь это совсем не веселье.





Реклама отсутствует

В любительском переводе присутствует ненормативная лексика!

Файл
Формат: MKV
Качество: BDRip 720p
Видео: 1280x534 at 23.976 fps, MPEG-4 AVC, ~6630 kbps avg
Аудио#1: Russian: 48 kHz, AC3, 3/2 (L,C,R,l,r) + LFE ch, ~640.00 kbps avg
Аудио#2: Russian: 48 kHz, AC3, 2/0 (L,R) ch, ~192.00 kbps avg
Аудио#3: Spanish: 48 kHz, AC3, 3/2 (L,C,R,l,r) + LFE ch, ~640.00 kbps avg
Субтитры: English (Full)

x264 [info]: frame I:1461 Avg QP:14.55 size:128156
x264 [info]: frame P:39423 Avg QP:15.88 size: 58435
x264 [info]: frame B:173168 Avg QP:17.72 size: 28342
x264 [info]: consecutive B-frames: 1.0% 1.1% 2.8% 11.0% 14.2% 55.4% 6.7% 2.0% 3.1% 1.1% 1.7%
x264 [info]: mb I I16..4: 15.1% 64.5% 20.4%
x264 [info]: mb P I16..4: 0.8% 18.4% 1.9% P16..4: 22.3% 29.7% 18.2% 3.8% 0.3% skip: 4.7%
x264 [info]: mb B I16..4: 0.1% 5.3% 0.2% B16..8: 32.6% 25.0% 7.3% direct: 9.9% skip:19.6% L0:44.8% L1:36.7% BI:18.5%
x264 [info]: 8x8 transform intra:89.3% inter:50.4%
x264 [info]: direct mvs spatial:100.0% temporal:0.0%
x264 [info]: coded y,uvDC,uvAC intra: 96.0% 78.2% 58.6% inter: 49.7% 28.2% 3.9%
x264 [info]: i16 v,h,dc,p: 34% 6% 28% 32%
x264 [info]: i8 v,h,dc,ddl,ddr,vr,hd,vl,hu: 11% 9% 20% 9% 11% 10% 10% 10% 12%
x264 [info]: i4 v,h,dc,ddl,ddr,vr,hd,vl,hu: 22% 7% 12% 8% 12% 11% 10% 9% 10%
x264 [info]: i8c dc,h,v,p: 41% 30% 19% 10%
x264 [info]: Weighted P-Frames: Y:3.4% UV:1.7%
x264 [info]: ref P L0: 37.6% 10.9% 18.9% 7.9% 7.6% 5.3% 5.3% 3.0% 3.4% 0.1% 0.0%
x264 [info]: ref B L0: 65.4% 13.7% 7.7% 4.5% 3.5% 3.0% 1.7% 0.5%
x264 [info]: ref B L1: 92.6% 7.4%
x264 [info]: kb/s:6630.03

x264 [total]: encoded 214052 frames, 11.02 fps, 6630.03 kb/s
Format : Matroska
Format version : Version 4
File size : 8.42 GiB
Duration : 2 h 28 min
Overall bit rate : 8 104 kb/s
Movie name : El Infierno (2010).720p
Encoded date : UTC 2020-03-16 22:14:43
Writing application : mkvmerge v8.2.0 ('World of Adventure') 64bit
Writing library : libebml v1.3.1 + libmatroska v1.4.2

Video
ID : 1
Format : AVC
Format/Info : Advanced Video Codec
Format profile : High@L4.1
Format settings : CABAC / 9 Ref Frames
Format settings, CABAC : Yes
Format settings, Reference frames : 9 frames
Codec ID : V_MPEG4/ISO/AVC
Duration : 2 h 28 min
Bit rate : 6 630 kb/s
Width : 1 280 pixels
Height : 534 pixels
Display aspect ratio : 2.40:1
Frame rate mode : Constant
Frame rate : 23.976 (24000/1001) FPS
Color space : YUV
Chroma subsampling : 4:2:0
Bit depth : 8 bits
Scan type : Progressive
Bits/(Pixel*Frame) : 0.405
Stream size : 6.89 GiB (82%)
Title : El Infierno (2010).720p
Writing library : x264 core 159 r2991 1771b55
Encoding settings : cabac=1 / ref=9 / deblock=1:-3:-2 / analyse=0x3:0x133 / me=umh / subme=11 / psy=1 / psy_rd=1.00:0.05 / mixed_ref=1 / me_range=48 / chroma_me=1 / trellis=2 / 8x8dct=1 / cqm=0 / deadzone=21,11 / fast_pskip=0 / chroma_qp_offset=-3 / threads=12 / lookahead_threads=3 / sliced_threads=0 / nr=0 / decimate=1 / interlaced=0 / bluray_compat=0 / constrained_intra=0 / bframes=10 / b_pyramid=2 / b_adapt=2 / b_bias=0 / direct=3 / weightb=1 / open_gop=0 / weightp=2 / keyint=250 / keyint_min=23 / scenecut=40 / intra_refresh=0 / rc_lookahead=60 / rc=crf / mbtree=0 / crf=16.3 / qcomp=0.60 / qpmin=0 / qpmax=69 / qpstep=4 / vbv_maxrate=50000 / vbv_bufsize=62500 / crf_max=0.0 / nal_hrd=none / filler=0 / ip_ratio=1.40 / pb_ratio=1.30 / aq=3:0.90
Language : English
Default : Yes
Forced : No

Audio #1
ID : 2
Format : AC-3
Format/Info : Audio Coding 3
Commercial name : Dolby Digital
Codec ID : A_AC3
Duration : 2 h 28 min
Bit rate mode : Constant
Bit rate : 640 kb/s
Channel(s) : 6 channels
Channel layout : L R C LFE Ls Rs
Sampling rate : 48.0 kHz
Frame rate : 31.250 FPS (1536 SPF)
Bit depth : 16 bits
Compression mode : Lossy
Stream size : 681 MiB (8%)
Title : AVO (Ю.Немахов)
Language : Russian
Service kind : Complete Main
Default : Yes
Forced : No

Audio #2
ID : 3
Format : AC-3
Format/Info : Audio Coding 3
Commercial name : Dolby Digital
Codec ID : A_AC3
Duration : 2 h 28 min
Bit rate mode : Constant
Bit rate : 192 kb/s
Channel(s) : 2 channels
Channel layout : L R
Sampling rate : 48.0 kHz
Frame rate : 31.250 FPS (1536 SPF)
Bit depth : 16 bits
Compression mode : Lossy
Stream size : 204 MiB (2%)
Title : VO Gopstarrr
Language : Russian
Service kind : Complete Main
Default : No
Forced : No

Audio #3
ID : 4
Format : AC-3
Format/Info : Audio Coding 3
Commercial name : Dolby Digital
Codec ID : A_AC3
Duration : 2 h 28 min
Bit rate mode : Constant
Bit rate : 640 kb/s
Channel(s) : 6 channels
Channel layout : L R C LFE Ls Rs
Sampling rate : 48.0 kHz
Frame rate : 31.250 FPS (1536 SPF)
Bit depth : 16 bits
Compression mode : Lossy
Stream size : 681 MiB (8%)
Title : Original
Language : Spanish
Service kind : Complete Main
Default : No
Forced : No

Text
ID : 5
Format : UTF-8
Codec ID : S_TEXT/UTF8
Codec ID/Info : UTF-8 Plain Text
Duration : 2 h 27 min
Bit rate : 63 b/s
Count of elements : 2110
Stream size : 68.4 KiB (0%)
Title : Full
Language : English
Default : No
Forced : No

Menu
00:00:00.000 : en:00:00:00.000
00:04:37.300 : en:00:04:37.300
00:07:11.200 : en:00:07:11.200
00:13:37.300 : en:00:13:37.300
00:20:56.300 : en:00:20:56.300
00:28:40.600 : en:00:28:40.600
00:33:30.200 : en:00:33:30.200
00:36:34.200 : en:00:36:34.200
00:43:42.400 : en:00:43:42.400
00:50:49.700 : en:00:50:49.700
00:57:41.200 : en:00:57:41.200
01:01:49.200 : en:01:01:49.200
01:03:21.200 : en:01:03:21.200
01:06:54.200 : en:01:06:54.200
01:09:33.200 : en:01:09:33.200
01:15:49.200 : en:01:15:49.200
01:18:29.000 : en:01:18:29.000
01:21:42.100 : en:01:21:42.100
01:23:53.900 : en:01:23:53.900
01:31:48.200 : en:01:31:48.200
01:36:11.800 : en:01:36:11.800
01:40:06.600 : en:01:40:06.600
01:46:43.100 : en:01:46:43.100
01:50:06.300 : en:01:50:06.300
01:59:25.100 : en:01:59:25.100
02:04:53.100 : en:02:04:53.100
02:08:03.300 : en:02:08:03.300
02:13:47.700 : en:02:13:47.700
02:18:22.300 : en:02:18:22.300
02:22:34.400 : en:02:22:34.400
02:23:57.400 : en:02:23:57.400
02:28:48.000 : en:02:28:48.000
• Дорожка №1 получена наложением чистого голоса на центр декодированного DTS-HD MA, работа со звуком - drobovik.
• Перевод Юрия Немахова осуществлен в рамках проекта "Краудфандинг" совместно с ресурсами E180 и TeamHD.
Спонсоры:
E180: arizonadream, hdrmv12, uchitel538, chontvari, luka69, Некрасов, Nadoelo, planshetist, oleg-k, barvinok13, miracle
TeamHD: zlodei24, tambov68, october2, hllwn55, Valent80, uncasual, Render71, KerkP, Kastro, digitus
Рутрекер: Omen333, tsiboul, Euroxit, cedr, middle_urals.
• Организатор перевода - arizonadream.






Кнопка "спасибо" поднимает не только репутацию, но и настроение! :bp:


У вас нет необходимых прав для просмотра вложений в этом сообщении.


Вернуться к началу
 Профиль  
Ответить с цитатой  
  • Торрент
Автор: Consultants Хэш: ---
Добавлен: 2020-07-11 14:28 Приватный: Нет (DHT включён)
Статус: Проверен
Размер: 8.42 ГБ (9 044 549 512 байт)
Изменил:
---
Скачали: 0 (Раздающих: 0%)
Причина:
---
Здоровье: 100%
Сидеров: 17 Личеров: 5
Скорость раздачи: 0 байт/сек Скорость скачивания: 0 байт/сек
Последний сидер: 11 дней 12 часов 1 минуту 45 секунд назад Последний личер: 11 дней 12 часов 1 минуту 45 секунд назад
Для скачивания торрента необходимо зарегистрироваться или войти на трекер.
Показать сообщения за:  Поле сортировки  
Начать новую тему Ответить на тему  [ 1 сообщение ] 

Часовой пояс: UTC + 3 часа


Кто сейчас на конференции

Сейчас этот форум просматривают: нет зарегистрированных пользователей и гости: 3


Вы не можете начинать темы
Вы не можете отвечать на сообщения
Вы не можете редактировать свои сообщения
Вы не можете удалять свои сообщения
Вы не можете добавлять вложения

Найти:
Перейти:  
Переместиться наверх
 Главная |  Список форумов |   Time : 0.081s | 15 Queries | GZIP : Off |
tracker_cron