Часовой пояс: UTC + 3 часа




Начать новую тему Ответить на тему  [ 1 сообщение ] 
Автор Сообщение
СообщениеДобавлено: 2020-07-13 21:55 
Не в сети
Администратор
Администратор
Аватара пользователя
Раздал: 1.24 ТБ
Скачал: 2.7 ГБ
Ратио: 470.569


Зарегистрирован: 2014-03-16 00:45
Сообщения: 2978
Палм-Спрингс / Palm Springs


#777

Информация о фильме
Название: Палм-Спрингс
Оригинальное название: Palm Springs
Год выхода: 2020
Страна: США
Студия: Culmination Productions, Limelight, Party Over Here
Продолжительность: 01:29:59
Перевод: любительский многоголосый, закадровый [MUDOBOZ]
Жанр: фантастика, комедия

Режиссер: Макс Барбаков

В ролях:
Энди Сэмберг, Кристин Милиоти, Дж.К. Симмонс, Тайлер Хэклин, Питер Галлахер, Дейл Дикки, Камила Мендес, Жаклин Обрадорс, Мередит Хагнер, Крис Пэнг

О фильме:
На одной летней свадьбе знакомятся сестра невесты Сара и парень подружки невесты Найлз. Интересно, что Найлз на этой свадьбе бывал миллион раз, так как застрял в петле времени. Как вскоре выяснится, в этом праздничном дне сурка торчит довольно много народу, и некоторым тут даже нравится.



Файл
Кодек: H.264
Качество: WEBRip 1080p
Видео: AVC, 1920x1080 (16:9), 24 fps ~ 4327 Kbps
Звук:
AC3, 48 KHz, 2 ch ~ 192 Kb/s (русский)
E-AC3, 48 KHz, 6 ch ~ 256 Kb/s (английский)
Субтитры: английские, испанские

General
Unique ID : 225517422597639698471810727610715222793 (0xA9A9136222BF9C84AEB4A616CE843309)
Complete name : J:wotPalm.Springs.2020.1080p.mkv
Format : Matroska
Format version : Version 4 / Version 2
File size : 3.06 GiB
Duration : 1h 29mn
Overall bit rate : 4 872 Kbps
Encoded date : UTC 2020-07-13 15:02:26
Writing application : mkvmerge v7.7.0 ('Six Voices') 32bit built on Feb 28 2015 23:23:00
Writing library : libebml v1.3.1 + libmatroska v1.4.2
_STATISTICS_WRITING_APP : mkvmerge v7.7.0 ('Six Voices') 32bit built on Feb 28 2015 23:23:00
_STATISTICS_WRITING_DATE_UTC : 2020-07-13 15:02:26
_STATISTICS_TAGS : BPS DURATION NUMBER_OF_FRAMES NUMBER_OF_BYTES
DURATION : 01:29:59.616000000
NUMBER_OF_FRAMES : 168738
NUMBER_OF_BYTES : 129590784

Video
ID : 1
Format : AVC
Format/Info : Advanced Video Codec
Format profile : High@L4
Format settings, CABAC : Yes
Format settings, ReFrames : 4 frames
Codec ID : V_MPEG4/ISO/AVC
Duration : 1h 29mn
Bit rate : 4 327 Kbps
Width : 1 920 pixels
Height : 1 080 pixels
Display aspect ratio : 16:9
Frame rate mode : Constant
Frame rate : 24.000 fps
Color space : YUV
Chroma subsampling : 4:2:0
Bit depth : 8 bits
Scan type : Progressive
Bits/(Pixel*Frame) : 0.087
Stream size : 2.72 GiB (89%)
Language : English
Default : Yes
Forced : No

Audio #1
ID : 2
Format : AC-3
Format/Info : Audio Coding 3
Mode extension : CM (complete main)
Format settings, Endianness : Big
Codec ID : A_AC3
Duration : 1h 29mn
Bit rate mode : Constant
Bit rate : 192 Kbps
Channel(s) : 2 channels
Channel positions : Front: L R
Sampling rate : 48.0 KHz
Compression mode : Lossy
Stream size : 124 MiB (4%)
Title : MUDOVOZ
Language : Russian
Default : Yes
Forced : No

Audio #2
ID : 3
Format : E-AC-3
Format/Info : Audio Coding 3
Format settings, Endianness : Big
Codec ID : A_EAC3
Duration : 1h 29mn
Bit rate mode : Constant
Bit rate : 256 Kbps
Channel(s) : 6 channels
Channel positions : Front: L C R, Side: L R, LFE
Sampling rate : 48.0 KHz
Compression mode : Lossy
Stream size : 165 MiB (5%)
Language : English
Default : No
Forced : No

Text #1
ID : 4
Format : UTF-8
Codec ID : S_TEXT/UTF8
Codec ID/Info : UTF-8 Plain Text
Language : English
Default : No
Forced : No

Text #2
ID : 5
Format : UTF-8
Codec ID : S_TEXT/UTF8
Codec ID/Info : UTF-8 Plain Text
Language : Spanish
Default : No
Forced : No


Семпл



У вас нет необходимых прав для просмотра вложений в этом сообщении.


Вернуться к началу
 Профиль  
Ответить с цитатой  
  • Торрент
Автор: Consultants Хэш: ---
Добавлен: 2020-07-13 21:55 Приватный: Нет (DHT включён)
Статус: Проверен
Размер: 3.06 ГБ (3 288 347 852 байт)
Изменил:
---
Скачали: 0 (Раздающих: 0%)
Причина:
---
Здоровье: 0%
Сидеров: 0 Личеров: 0
Скорость раздачи: 0 байт/сек Скорость скачивания: 0 байт/сек
Последний сидер: Нет Последний личер: Нет
Для скачивания торрента необходимо зарегистрироваться или войти на трекер.
Показать сообщения за:  Поле сортировки  
Начать новую тему Ответить на тему  [ 1 сообщение ] 

Часовой пояс: UTC + 3 часа


Кто сейчас на конференции

Сейчас этот форум просматривают: нет зарегистрированных пользователей и гости: 4


Вы не можете начинать темы
Вы не можете отвечать на сообщения
Вы не можете редактировать свои сообщения
Вы не можете удалять свои сообщения
Вы не можете добавлять вложения

Найти:
Перейти:  
Переместиться наверх
 Главная |  Список форумов |   Time : 0.239s | 15 Queries | GZIP : Off |
tracker_cron