Часовой пояс: UTC + 3 часа




Начать новую тему Ответить на тему  [ 1 сообщение ] 
Автор Сообщение
СообщениеДобавлено: 2020-07-16 00:43 
Не в сети
Супермодератор
Супермодератор
Аватара пользователя
Раздал: 3.04 ГБ
Скачал: 0 байт
Ратио: Seed.


Зарегистрирован: 2018-11-16 11:27
Сообщения: 89
12-й человек / Den 12. mann


#777

Название: 12-й человек
Оригинальное название: Den 12. mann (The 12th Man)
Год выпуска: 2017
Страна: Норвегия
Студия: Nordisk Film Production AS, Zwart Arbeid
Продолжительность: 02:15:44
Перевод: Профессиональный (многоголосый, закадровый) | HDRezka Studio
Жанр: Военный, драма, реальные события

Режиссер: Харольд Цварт

В ролях:
Томас Гуллестад, Джонатан Риз Майерс, Мари Блокхус, Мадс Сьёгард Петтерсен, Вегар Хуль, Хокон Т. Нильсен, Эйрик Рисхольм Велле, Даниэль Фрикстад, Эрик Дирне, Александр Цварт

О фильме:
Основан на реальных событиях. Группа бойцов норвежского Сопротивления получает задание добраться до северо-западного норвежского побережья на судне «Браттхольм» и совершить диверсию на одной из немецких авиационных баз. Но миссия потерпела неудачу еще в море: судно было атаковано немецким кораблем и потоплено. Все захвачены в плен. Единственным человеком, которому удалось спастись, оказался Ян Баальсруд. Ему удается добраться до берега и бежать в сторону шведской границы. Преследуемый гестапо, Баальсруд ищет убежище в горах. Ему предстоит выдержать невероятные испытания и реально выжить лишь чудом.




БЕЗ КАКОЙ-ЛИБО РЕКЛАМЫ!

Формат: MKV
Качество: BDRip 1080p
Источник: CHD
Видео: MPEG-4 AVC, 1920x800 (2.40:1), 24.000 fps, ~ 9331 kbps avg, 0.253 bit/pixel
Аудио 1: 48 kHz, AC3, 5.1, 448 Kbps | HDRezka Studio | RUS |
Аудио 2: 48 kHz, DTS, 5.1, 1509 Kbps | original | GER |
Субтитры: Русские, английские


General
Unique ID : 245893657604386923742228370230714913111 (0xB8FD655536E53A298C525B0507C15157)
Complete name : C:The.12th.Man.2017.BDRip.1080p.ExKinoRay.mkv
Format : Matroska
Format version : Version 2
File size : 10.9 GiB
Duration : 2 h 15 min
Overall bit rate : 11.5 Mb/s
Movie name : The 12th Man 2017 from ExKinoRay
Encoded date : UTC 2020-07-15 00:31:45
Writing application : mkvmerge v5.6.0 ('Kenya Kane') built on May 27 2012 16:44:04
Writing library : libebml v1.2.3 + libmatroska v1.3.0

Video
ID : 1
Format : AVC
Format/Info : Advanced Video Codec
Format profile : High@L4.1
Format settings, CABAC : Yes
Format settings, ReFrames : 5 frames
Codec ID : V_MPEG4/ISO/AVC
Duration : 2 h 15 min
Bit rate : 9 331 kb/s
Width : 1 920 pixels
Height : 800 pixels
Display aspect ratio : 2.40:1
Frame rate mode : Constant
Frame rate : 24.000 FPS
Color space : YUV
Chroma subsampling : 4:2:0
Bit depth : 8 bits
Scan type : Progressive
Bits/(Pixel*Frame) : 0.253
Stream size : 8.85 GiB (81%)
Title : wangliang790@CHD
Writing library : x264 core 148 r2762+56 6284cf3 t_mod_Custom [8-bit@all X86_64]
Encoding settings : cabac=1 / ref=5 / deblock=1:-3:-3 / analyse=0x3:0x133 / me=umh / subme=10 / psy=1 / fade_compensate=0.00 / psy_rd=1.00:0.05 / mixed_ref=1 / me_range=32 / chroma_me=1 / trellis=2 / 8x8dct=1 / cqm=0 / deadzone=21,11 / fast_pskip=0 / chroma_qp_offset=-3 / threads=6 / lookahead_threads=1 / sliced_threads=0 / nr=0 / decimate=0 / interlaced=0 / bluray_compat=0 / constrained_intra=0 / fgo=0 / bframes=10 / b_pyramid=2 / b_adapt=2 / b_bias=0 / direct=3 / weightb=1 / open_gop=0 / weightp=2 / keyint=240 / keyint_min=24 / scenecut=40 / intra_refresh=0 / rc_lookahead=60 / rc=crf / mbtree=1 / crf=15.5000 / qcomp=0.70 / qpmin=0:0:0 / qpmax=69:69:69 / qpstep=4 / vbv_maxrate=62500 / vbv_bufsize=78125 / crf_max=0.0 / nal_hrd=none / filler=0 / ip_ratio=1.40 / aq=1:0.90 / aq-sensitivity=10.00 / aq-factor=1.00:1.00:1.00 / aq2=0 / aq3=0
Language : English
Default : Yes
Forced : No

Audio #1
ID : 2
Format : AC-3
Format/Info : Audio Coding 3
Mode extension : CM (complete main)
Format settings, Endianness : Big
Codec ID : A_AC3
Duration : 2 h 15 min
Bit rate mode : Constant
Bit rate : 448 kb/s
Channel(s) : 6 channels
Channel positions : Front: L C R, Side: L R, LFE
Sampling rate : 48.0 kHz
Frame rate : 31.250 FPS (1536 spf)
Compression mode : Lossy
Stream size : 435 MiB (4%)
Title : MVO (HDRezka Studio)
Language : Russian
Default : Yes
Forced : No

Audio #2
ID : 3
Format : DTS
Format/Info : Digital Theater Systems
Mode : 16
Format settings, Endianness : Big
Codec ID : A_DTS
Duration : 2 h 15 min
Bit rate mode : Constant
Bit rate : 1 509 kb/s
Channel(s) : 6 channels
Channel positions : Front: L C R, Side: L R, LFE
Sampling rate : 48.0 kHz
Frame rate : 93.750 FPS (512 spf)
Bit depth : 24 bits
Compression mode : Lossy
Stream size : 1.43 GiB (13%)
Title : DTS
Language : German
Default : No
Forced : No

Text #1
ID : 4
Format : UTF-8
Codec ID : S_TEXT/UTF8
Codec ID/Info : UTF-8 Plain Text
Title : Full
Language : Russian
Default : No
Forced : No

Text #2
ID : 5
Format : UTF-8
Codec ID : S_TEXT/UTF8
Codec ID/Info : UTF-8 Plain Text
Language : English
Default : No
Forced : No

Menu
00:00:00.000 : en:1
00:04:32.439 : en:2
00:11:15.174 : en:3
00:18:42.913 : en:4
00:21:40.632 : en:5
00:27:22.348 : en:6
00:32:36.119 : en:7
00:37:47.430 : en:8
00:45:13.917 : en:9
00:50:10.712 : en:10
00:56:16.702 : en:11
01:00:34.750 : en:12
01:05:27.125 : en:13
01:09:24.110 : en:14
01:14:36.921 : en:15
01:20:28.314 : en:16



Автор релиза:


У вас нет необходимых прав для просмотра вложений в этом сообщении.


Вернуться к началу
 Профиль  
Ответить с цитатой  
  • Торрент
Автор: Klingon Хэш: ---
Добавлен: 2020-07-16 00:43 Приватный: Нет (DHT включён)
Статус: Проверен
Размер: 10.93 ГБ (11 735 654 207 байт)
Изменил:
---
Скачали: 291 (Раздающих: 0%)
Причина:
---
Здоровье: 100%
Сидеров: 94 Личеров: 24
Скорость раздачи: 0 байт/сек Скорость скачивания: 0 байт/сек
Последний сидер: 16 дней 23 часа 41 минуту 44 секунды назад Последний личер: 16 дней 23 часа 41 минуту 44 секунды назад
Для скачивания торрента необходимо зарегистрироваться или войти на трекер.
Показать сообщения за:  Поле сортировки  
Начать новую тему Ответить на тему  [ 1 сообщение ] 

Часовой пояс: UTC + 3 часа


Кто сейчас на конференции

Сейчас этот форум просматривают: нет зарегистрированных пользователей и гости: 4


Вы не можете начинать темы
Вы не можете отвечать на сообщения
Вы не можете редактировать свои сообщения
Вы не можете удалять свои сообщения
Вы не можете добавлять вложения

Найти:
Перейти:  
cron
Переместиться наверх
 Главная |  Список форумов |   Time : 0.082s | 17 Queries | GZIP : Off |
tracker_cron