Часовой пояс: UTC + 3 часа




Начать новую тему Ответить на тему  [ 1 сообщение ] 
Автор Сообщение
СообщениеДобавлено: 2020-07-21 21:49 
Не в сети
Администратор
Администратор
Аватара пользователя
Раздал: 1.24 ТБ
Скачал: 2.7 ГБ
Ратио: 470.569


Зарегистрирован: 2014-03-16 00:45
Сообщения: 2990
7 часов на соблазнение / 7 ore per farti innamorare


#777

Информация о фильме
Название: 7 часов на соблазнение
Оригинальное название: 7 ore per farti innamorare
Год выхода: 2020
Выпущено: Италия / Italian International Film, Vision Distribution, Ministero dei Beni e delle Attività Culturali e del Turismo
Продолжительность: 01:34:32
Озвучивание: Профессиональное (многоголосое) | iTunes
Жанр: комедия

Режиссер: Джампаоло Морелли

В ролях:
Джампаоло Морелли, Серена Росси, Диана Дель Буфало, Массимилиано Галло, Фабио Бальсамо, Синция Мирабелла, Антония Труппо

О фильме:
Искусство соблазнения - это наука, и, научившись ее приемам, можно добиться расположения любой красотки всего за 7 часов. В этом твердо убеждена Валерия, чей курс по соблазнению пользуется огромной популярностью у одиноких мужчин. Однажды к ней записывается Джулио, который хочет вернуть расположение своей бывшей невесты. Валерия помогает ему разработать план действий. Однако в ходе реализации этого плана Джулио и Валерию ждут неожиданные открытия. Так ли предсказуема любовь или это загадка, которая не подчиняется никаким законам?




Файл
Формат: MKV
Качество: WEB-DL 1080p
Видео: AVC, 4557 Kb/s, 1920x802
Аудио: Russian: 48 kHz, AC3 Dolby Digital, 3/2 (L, C, R, l, r) + LFE ch, ~384 Kbps
Субтитры: Нет
Дополнительно: Сохранены оригинальные чаптеры.

Complete name: 7.chasov.na.soblaznenie.2020.WEB-DL.1080p.ELEKTRI4KA.UNIONGANG.mkv
Format: Matroska
Format version: Version 4 / Version 2
File size: 3.26 GiB
Duration: 1 h 34 min
Overall bit rate: 4 943 kb/s
Movie name: .ELEKTRI4KA.UNIONGANG.
Encoded date: UTC 2020-06-14 13:59:08
Writing application: mkvmerge v8.3.0 ('Over the Horizon') 64bit
Writing library: libebml v1.3.1 + libmatroska v1.4.2
Video
ID: 1
Format: AVC
Format/Info: Advanced Video Codec
Format profile: High@L4
Format settings, CABAC: Yes
Format settings, Reference frames: 5 frames
Codec ID: V_MPEG4/ISO/AVC
Duration: 1 h 34 min
Bit rate: 4 557 kb/s
Width: 1 920 pixels
Height: 802 pixels
Display aspect ratio: 2.40:1
Frame rate mode: Constant
Frame rate: 24.000 FPS
Color space: YUV
Chroma subsampling: 4:2:0
Bit depth: 8 bits
Scan type: Progressive
Bits/(Pixel*Frame): 0.123
Stream size: 3.01 GiB (92%)
Title: .ELEKTRI4KA.UNIONGANG.
Language: English
Default: Yes
Forced: No
Color range: Limited
Color primaries: BT.709
Transfer characteristics: BT.709
Matrix coefficients: BT.709
Audio
ID: 2
Format: AC-3
Format/Info: Audio Coding 3
Mode extension: CM (complete main)
Format settings, Endianness: Big
Codec ID: A_AC3
Duration: 1 h 34 min
Bit rate mode: Constant
Bit rate: 384 kb/s
Channel(s): 6 channels
Channel positions: Front: L C R, Side: L R, LFE
Sampling rate: 48.0 kHz
Frame rate: 31.250 FPS (1536 spf)
Bit depth: 16 bits
Compression mode: Lossy
Stream size: 260 MiB (8%)
Title: iTunes
Language: Russian
Default: Yes
Forced: No
Menu
00:00:00.000: Chapter 1
00:06:58.041: Chapter 2
00:15:03.540: Chapter 3
00:24:46.122: Chapter 4
00:32:01.830: Chapter 5
00:41:10.580: Chapter 6
00:47:42.455: Chapter 7
00:55:12.996: Chapter 8
01:04:54.787: Chapter 9
01:14:05.827: Chapter 10
01:20:41.368: Chapter 11


Релиз группы: &


У вас нет необходимых прав для просмотра вложений в этом сообщении.


Вернуться к началу
 Профиль  
Ответить с цитатой  
  • Торрент
Автор: Consultants Хэш: ---
Добавлен: 2020-07-21 21:49 Приватный: Нет (DHT включён)
Статус: Проверен
Размер: 3.26 ГБ (3 504 563 967 байт)
Изменил:
---
Скачали: 0 (Раздающих: 0%)
Причина:
---
Здоровье: 0%
Сидеров: 0 Личеров: 0
Скорость раздачи: 0 байт/сек Скорость скачивания: 0 байт/сек
Последний сидер: Нет Последний личер: Нет
Для скачивания торрента необходимо зарегистрироваться или войти на трекер.
Показать сообщения за:  Поле сортировки  
Начать новую тему Ответить на тему  [ 1 сообщение ] 

Часовой пояс: UTC + 3 часа


Кто сейчас на конференции

Сейчас этот форум просматривают: нет зарегистрированных пользователей и гости: 3


Вы не можете начинать темы
Вы не можете отвечать на сообщения
Вы не можете редактировать свои сообщения
Вы не можете удалять свои сообщения
Вы не можете добавлять вложения

Найти:
Перейти:  
Переместиться наверх
 Главная |  Список форумов |   Time : 0.083s | 17 Queries | GZIP : Off |
tracker_cron