Часовой пояс: UTC + 3 часа




Начать новую тему Ответить на тему  [ 1 сообщение ] 
Автор Сообщение
СообщениеДобавлено: 2020-07-30 23:07 
Не в сети
Супермодератор
Супермодератор
Аватара пользователя
Раздал: 3.04 ГБ
Скачал: 0 байт
Ратио: Seed.


Зарегистрирован: 2018-11-16 11:27
Сообщения: 89
За пределами пустоты / Beyond White Space


#777

Информация о фильме
Название: За пределами пустоты
Оригинальное название: Beyond White Space
Год выхода: 2018
Страна: США, Венгрия
Продолжительность: 01:33:32
Перевод: Профессиональный (многоголосый закадровый) | HDRezka Studio
Жанр: Фантастика, триллер

Режиссер: Кен Локсманди

В ролях:
Холт МакКэллани, Сулай Энао, Дэйв Шеридан, Джим Девоти, Джоко Симс, Коди Китчен, Майк Дженовезе, Тиффани Броувер, Айзек С. Синглтон мл., Себастьян А. Джонс

О фильме:
2150 год. Космический корабль, команда которого промышляет охотой на существ, обитающих в космосе, получает очередное задание. За эту работу героям обещают заплатить неплохие деньги, но как бы ни старались космические охотники, поймать свою добычу им не удаётся. Их миссия проваливается, а сами они становятся жертвами одной очень опасной банды.



Трейлер

Файл
Кодек: H.264
Качество: BDRemux 1080p
Видео: AVC, 1920x1080 (16:9), 23.976 fps, 19.9 Mb/s
Аудио 1: AC-3, 48.0 kHz, 6 ch, 448 kb/s | RUS
Аудио 2: DTS-HD MA, 48.0 kHz, 6 ch, 1 965 kb/s | ENG
Субтитры: Английские

General
Unique ID : 213526190095132976754329925587722022713 (0xA0A3A5F9B59E538CB052FCEF5503AF39)
Complete name : Beyond.White.Space.2018.BDRemux.1080p.mkv
Format : Matroska
Format version : Version 4
File size : 14.6 GiB
Duration : 1 h 33 min
Overall bit rate mode : Variable
Overall bit rate : 22.3 Mb/s
Encoded date : UTC 2020-07-29 15:27:29
Writing application : mkvmerge v8.3.0 ('Over the Horizon') 64bit
Writing library : libebml v1.3.1 + libmatroska v1.4.2

Video
ID : 1
Format : AVC
Format/Info : Advanced Video Codec
Format profile : High@L4.1
Format settings : CABAC / 4 Ref Frames
Format settings, CABAC : Yes
Format settings, ReFrames : 4 frames
Codec ID : V_MPEG4/ISO/AVC
Duration : 1 h 33 min
Bit rate mode : Variable
Bit rate : 19.9 Mb/s
Maximum bit rate : 36.0 Mb/s
Width : 1 920 pixels
Height : 1 080 pixels
Display aspect ratio : 16:9
Frame rate mode : Constant
Frame rate : 23.976 (24000/1001) FPS
Color space : YUV
Chroma subsampling : 4:2:0
Bit depth : 8 bits
Scan type : Progressive
Bits/(Pixel*Frame) : 0.400
Stream size : 13.0 GiB (89%)
Default : Yes
Forced : No

Audio #1
ID : 2
Format : AC-3
Format/Info : Audio Coding 3
Commercial name : Dolby Digital
Codec ID : A_AC3
Duration : 1 h 33 min
Bit rate mode : Constant
Bit rate : 448 kb/s
Channel(s) : 6 channels
Channel layout : L R C LFE Ls Rs
Sampling rate : 48.0 kHz
Frame rate : 31.250 FPS (1536 SPF)
Bit depth : 16 bits
Compression mode : Lossy
Stream size : 300 MiB (2%)
Title : MVO | HDRezka Studio
Language : Russian
Service kind : Complete Main
Default : Yes
Forced : No

Audio #2
ID : 3
Format : DTS XLL
Format/Info : Digital Theater Systems
Commercial name : DTS-HD Master Audio
Codec ID : A_DTS
Duration : 1 h 33 min
Bit rate mode : Variable
Bit rate : 1 965 kb/s
Channel(s) : 6 channels
Channel layout : C L R Ls Rs LFE
Sampling rate : 48.0 kHz
Frame rate : 93.750 FPS (512 SPF)
Bit depth : 16 bits
Compression mode : Lossless
Stream size : 1.28 GiB (9%)
Language : English
Default : No
Forced : No

Text #1
ID : 4
Format : UTF-8
Codec ID : S_TEXT/UTF8
Codec ID/Info : UTF-8 Plain Text
Duration : 1 h 27 min
Bit rate : 44 b/s
Count of elements : 1067
Stream size : 28.8 KiB (0%)
Title : Full
Language : English
Default : No
Forced : No

Text #2
ID : 5
Format : UTF-8
Codec ID : S_TEXT/UTF8
Codec ID/Info : UTF-8 Plain Text
Duration : 1 h 30 min
Bit rate : 60 b/s
Count of elements : 1575
Stream size : 39.8 KiB (0%)
Title : SDH
Language : English
Default : No
Forced : No

Menu
00:00:00.000 : de:Chapter 01
00:08:07.653 : de:Chapter 02
00:14:58.314 : de:Chapter 03
00:23:56.101 : de:Chapter 04
00:32:57.892 : de:Chapter 05
00:40:24.171 : de:Chapter 06
00:49:52.906 : de:Chapter 07
00:58:11.279 : de:Chapter 08
01:05:05.109 : de:Chapter 09
01:11:05.803 : de:Chapter 10
01:19:04.865 : de:Chapter 11
01:25:12.565 : de:Chapter 12


У вас нет необходимых прав для просмотра вложений в этом сообщении.


Вернуться к началу
 Профиль  
Ответить с цитатой  
  • Торрент
Автор: Klingon Хэш: ---
Добавлен: 2020-07-30 23:07 Приватный: Нет (DHT включён)
Статус: Проверен
Размер: 14.56 ГБ (15 634 844 889 байт)
Изменил:
---
Скачали: 0 (Раздающих: 0%)
Причина:
---
Здоровье: 0%
Сидеров: 0 Личеров: 0
Скорость раздачи: 0 байт/сек Скорость скачивания: 0 байт/сек
Последний сидер: Нет Последний личер: Нет
Для скачивания торрента необходимо зарегистрироваться или войти на трекер.
Показать сообщения за:  Поле сортировки  
Начать новую тему Ответить на тему  [ 1 сообщение ] 

Часовой пояс: UTC + 3 часа


Кто сейчас на конференции

Сейчас этот форум просматривают: нет зарегистрированных пользователей и гости: 2


Вы не можете начинать темы
Вы не можете отвечать на сообщения
Вы не можете редактировать свои сообщения
Вы не можете удалять свои сообщения
Вы не можете добавлять вложения

Найти:
Перейти:  
Переместиться наверх
 Главная |  Список форумов |   Time : 0.108s | 15 Queries | GZIP : Off |
tracker_cron