Часовой пояс: UTC + 3 часа




Начать новую тему Ответить на тему  [ 1 сообщение ] 
Автор Сообщение
СообщениеДобавлено: 2020-08-01 11:49 
Не в сети
Администратор
Администратор
Аватара пользователя
Раздал: 1.24 ТБ
Скачал: 2.7 ГБ
Ратио: 470.569


Зарегистрирован: 2014-03-16 00:45
Сообщения: 2990
#777
Информация о фильме
Название: Лучшее предложение
Оригинальное название: La migliore offerta
Год выхода: 2013
Жанр: триллер, драма, криминал
Режиссер: Джузеппе Торнаторе
В ролях: Джеффри Раш, Джим Стёрджесс, Сильвия Хукс, Дональд Сазерленд, Филип Джексон, Дермот Краули, Кируна Стамелл, Лия Кебеде, Катерина Каподилиста, Гэн Сэто

О фильме: Вергилий Олдман — управляющий директор ведущего аукционного дома. Время от времени со своим партнёром Билли на глазах у всего мира он проворачивает хитроумные аферы, ловко манипулируя и вводя в заблуждение как продавцов, так и покупателей. В секретном зале своей виллы он собрал сотни бесценных картин из разных эпох.

Однажды таинственная женщина, скрывающая свою личность, просит его продать антиквариат её семьи. Среди многочисленных произведений искусства раз за разом Олдман обнаруживает частицы давно утерянного механизма. В своё время поговаривали, что для того, чтобы его оживить, создатели прибегали к помощи высших сил… Складывая, как пазл, найденные детали, вместе со своим гениальным другом Робертом они пытаются разгадать этот секрет. Но Олдман заинтересован не только предметами старины…



Страна: Италия
Студия: AdriAlpe-Media OEG, UniCredit Group, Warner Bros.
Продолжительность: 02:10:58
Перевод: Профессиональный (дублированный), Авторский (одноголосый, закадровый)

Файл
Качество: BDRip 1080p | HDMaNiAcS
Формат: Matroska
Видео: 1920x804 at 24.000 fps, x264, ~9000 kbps avg
Aудио#1: Russian: 48 kHz, AC3, 3/2 (L,C,R,l,r) + LFE ch, ~448 kbps avg |Дубляж, Blu-ray RUS|
Aудио#2: Russian: 48 kHz, AC3, 3/2 (L,C,R,l,r) + LFE ch, ~448 kbps avg |Авторский, Ю.Сербин|
Aудио#3: English: 48 kHz, AC3, 3/2 (L,C,R,l,r) + LFE ch, ~448 kbps avg
Субтитры: Russian (Full), English (Full), Italian (SDH)

***Сохранены оригинальные главы как на Blu-ray

В фильме показаны несколько произведений искусства. Картина, которую восстанавливают, - это «Портрет молодой девушки» (ок. 1470) Петруса Кристуса. Среди изучаемых Олдманом работ есть «Рождение Венеры» (1879) Уильяма-Адольфа Бугро. Среди женских портретов в его коллекции есть «Портрет молодой женщины (La Fornarina)» (ок. 1519) и «Портрет молодой женщины (La Muta)» (1507) Рафаэля, «La Bella» (Красавица) (1536) Тициана, «Портрет Элеоноры Толедской» (1560) и «Портрет Лукреции Панчатики» (1541) Аньоло Бронзино, «Портрет Катерины Сфорца» (ок. 1490) Лоренцо ди Креди, «Цыганка» Бокаччо Бокаччино, «Портрет девушки с книгой стихов Петрарки» (ок. 1528) Андреа дель Сарто, «Портрет Бьянки Капелло» (ок. 1572) Алессандро Аллори, «Портрет Элисбет Тухер» (1499) Альбрехта Дюрера, и «Жанна Самари в декольте (La Reverie)» (1877) Пьера Огюста Ренуара. Есть также работы Лукаса Кранаха ст., Питера Пауля Рубенса, Франсиско Гойи, Элизабет Виже-Лебрен, Данте Габриэль Россетти, Амедео Модильяни, Моргана Уэйстлинга и многих других.
Малоизвестную за пределами Нидерландов Сильвию Хукс создатели фильма приметили на Берлинском кинофестивале.
Съёмки проходили в ряде городов Италии, а также в Вене и Праге.
Торнаторе снял альтернативную концовку к фильму. Место действия - ресторан в Риме. То же самое место используется в предшествующих сценах, но заключительная сцена, снятая на той же съемочной площадке в Риме, была вырезана и заменена более сложной сценой, также слегка изменили диалог, снятый в различных местах по миру.
[*]На месте вымышленного чешского ресторана Night and Day, который показан в конце фильма, на самом деле находился ресторан Pivnice u Milosrdnych (закрыт с 03.08.2013). Надпись с названием ресторана можно видеть, когда Олдман заходит внутрь (буквы просвечивают с наружной таблички и видны поэтому зеркально). Часы с правой стороны входа на самом деле являлись логотипом пива Gambrinus. Логотип вымышленного ресторана над входом также изображен поверх логотипа Gambrinus. При этом на стеклах логотип пива не стали маскировать.
General
Unique ID : 206133697933270194046019611321408573065 (0x9B13E7F8C56736C5A025BF12F55A4E89)
Complete name : La.migliore.offerta.2013.BDRip.1080p.2xRus.Eng.mkv
Format : Matroska
Format version : Version 2
File size : 9.42 GiB
Duration : 2 h 10 min
Overall bit rate : 10.3 Mb/s
Movie name : Лучшее предложение / La migliore offerta (2013)
Encoded date : UTC 2020-07-26 12:52:09
Writing application : mkvmerge v5.8.0 ('No Sleep / Pillow') built on Sep 2 2012 15:37:04
Writing library : libebml v1.2.3 + libmatroska v1.3.0

Video
ID : 1
Format : AVC
Format/Info : Advanced Video Codec
Format profile : High@L4.1
Format settings : CABAC / 5 Ref Frames
Format settings, CABAC : Yes
Format settings, Reference fra : 5 frames
Codec ID : V_MPEG4/ISO/AVC
Duration : 2 h 10 min
Bit rate : 8 950 kb/s
Width : 1 920 pixels
Height : 804 pixels
Display aspect ratio : 2.40:1
Frame rate mode : Constant
Frame rate : 24.000 FPS
Color space : YUV
Chroma subsampling : 4:2:0
Bit depth : 8 bits
Scan type : Progressive
Bits/(Pixel*Frame) : 0.242
Stream size : 8.00 GiB (85%)
Writing library : x264 core 138 r2358 9e941d1
Encoding settings : cabac=1 / ref=5 / deblock=1:-3:-3 / analyse=0x3:0x133 / me=tesa / subme=11 / psy=1 / psy_rd=1.05:0.00 / mixed_ref=1 / me_range=32 / chroma_me=1 / trellis=2 / 8x8dct=1 / cqm=0 / deadzone=21,11 / fast_pskip=1 / chroma_qp_offset=-2 / threads=12 / lookahead_threads=2 / sliced_threads=0 / nr=0 / decimate=1 / interlaced=0 / bluray_compat=0 / constrained_intra=0 / bframes=8 / b_pyramid=2 / b_adapt=2 / b_bias=0 / direct=3 / weightb=1 / open_gop=0 / weightp=2 / keyint=240 / keyint_min=24 / scenecut=40 / intra_refresh=0 / rc=2pass / mbtree=0 / bitrate=8950 / ratetol=1.0 / qcomp=0.60 / qpmin=10 / qpmax=69 / qpstep=4 / cplxblur=20.0 / qblur=0.5 / ip_ratio=1.40 / pb_ratio=1.30 / aq=2:0.75
Language : Italian
Default : Yes
Forced : No

Audio #1
ID : 2
Format : AC-3
Format/Info : Audio Coding 3
Commercial name : Dolby Digital
Codec ID : A_AC3
Duration : 2 h 10 min
Bit rate mode : Constant
Bit rate : 448 kb/s
Channel(s) : 6 channels
Channel layout : L R C LFE Ls Rs
Sampling rate : 48.0 kHz
Frame rate : 31.250 FPS (1536 SPF)
Bit depth : 16 bits
Compression mode : Lossy
Stream size : 420 MiB (4%)
Title : Дубляж | Blu-ray RUS
Language : Russian
Service kind : Complete Main
Default : Yes
Forced : No

Audio #2
ID : 3
Format : AC-3
Format/Info : Audio Coding 3
Commercial name : Dolby Digital
Codec ID : A_AC3
Duration : 2 h 10 min
Bit rate mode : Constant
Bit rate : 448 kb/s
Channel(s) : 6 channels
Channel layout : L R C LFE Ls Rs
Sampling rate : 48.0 kHz
Frame rate : 31.250 FPS (1536 SPF)
Bit depth : 16 bits
Compression mode : Lossy
Stream size : 420 MiB (4%)
Title : Авторский | Ю.Сербин
Language : Russian
Service kind : Complete Main
Default : No
Forced : No

Audio #3
ID : 4
Format : AC-3
Format/Info : Audio Coding 3
Commercial name : Dolby Digital
Codec ID : A_AC3
Duration : 2 h 10 min
Bit rate mode : Constant
Bit rate : 448 kb/s
Channel(s) : 6 channels
Channel layout : L R C LFE Ls Rs
Sampling rate : 48.0 kHz
Frame rate : 31.250 FPS (1536 SPF)
Bit depth : 16 bits
Compression mode : Lossy
Stream size : 420 MiB (4%)
Language : English
Service kind : Complete Main
Default : No
Forced : No

Text #1
ID : 5
Format : UTF-8
Codec ID : S_TEXT/UTF8
Codec ID/Info : UTF-8 Plain Text
Title : Full | Blu-ray RUS
Language : Russian
Default : No
Forced : No

Text #2
ID : 6
Format : UTF-8
Codec ID : S_TEXT/UTF8
Codec ID/Info : UTF-8 Plain Text
Title : Full
Language : English
Default : No
Forced : No

Text #3
ID : 7
Format : UTF-8
Codec ID : S_TEXT/UTF8
Codec ID/Info : UTF-8 Plain Text
Title : SDH
Language : Italian
Default : No
Forced : No

Menu
00:00:00.000 : en:00:00:00.000
00:08:59.875 : en:00:08:59.875
00:16:33.542 : en:00:16:33.542
00:32:53.167 : en:00:32:53.167
00:48:00.500 : en:00:48:00.500
00:53:51.500 : en:00:53:51.500
01:01:55.000 : en:01:01:55.000
01:11:45.833 : en:01:11:45.833
01:24:45.333 : en:01:24:45.333
01:34:51.708 : en:01:34:51.708
01:40:27.000 : en:01:40:27.000
01:57:58.667 : en:01:57:58.667



У вас нет необходимых прав для просмотра вложений в этом сообщении.


Вернуться к началу
 Профиль  
Ответить с цитатой  
  • Торрент
Автор: Consultants Хэш: ---
Добавлен: 2020-08-01 11:49 Приватный: Нет (DHT включён)
Статус: Проверен
Размер: 9.42 ГБ (10 113 445 396 байт)
Изменил:
---
Скачали: 0 (Раздающих: 0%)
Причина:
---
Здоровье: 0%
Сидеров: 0 Личеров: 0
Скорость раздачи: 0 байт/сек Скорость скачивания: 0 байт/сек
Последний сидер: Нет Последний личер: Нет
Для скачивания торрента необходимо зарегистрироваться или войти на трекер.
Показать сообщения за:  Поле сортировки  
Начать новую тему Ответить на тему  [ 1 сообщение ] 

Часовой пояс: UTC + 3 часа


Кто сейчас на конференции

Сейчас этот форум просматривают: нет зарегистрированных пользователей и гости: 4


Вы не можете начинать темы
Вы не можете отвечать на сообщения
Вы не можете редактировать свои сообщения
Вы не можете удалять свои сообщения
Вы не можете добавлять вложения

Найти:
Перейти:  
Переместиться наверх
 Главная |  Список форумов |   Time : 0.092s | 17 Queries | GZIP : Off |
tracker_cron