Часовой пояс: UTC + 3 часа




Начать новую тему Ответить на тему  [ 1 сообщение ] 
Автор Сообщение
СообщениеДобавлено: 2020-08-01 11:49 
Не в сети
Администратор
Администратор
Аватара пользователя
Раздал: 1.24 ТБ
Скачал: 2.7 ГБ
Ратио: 470.569


Зарегистрирован: 2014-03-16 00:45
Сообщения: 2990
#777
Информация о фильме
Название: Мистер и миссис Смит
Оригинальное название: Mr. & Mrs. Smith
Год выхода: 2005
Жанр: боевик, триллер, мелодрама, комедия, криминал
Режиссер: Даг Лайман
В ролях: Брэд Питт (John Smith), Анджелина Джоли (Jane Smith), Винс Вон (Eddie), Адам Броди (Benjamin Danz), Керри Вашингтон (Jasmine), Кит Дэвид (Father), Крис Вайц (Martin Coleman), Рэйчел Хантли (Suzy Coleman), Мишель Монахэн (Gwen), Стефани Марч (Julie - Associate #1), Дженнифер Моррисон (Jade - Associate #2), Тереза Баррера (Janet - Associate #3)

О фильме: Молодая супружеская пара ведет мирную и размеренную жизнь в своем доме за городом. Джейн и Джон Смиты не так давно скрепили свои жизни браком, однако уже успели устать от рутины отношений. Они молоды, красивы, а работа у них - скучнее не придумаешь. Однако пока еще они не в курсе главных секретов своих вторых половинок. Джейн и Джон на самом деле являются профессиональными киллерами. Причем, работают они в разных организациях, конкурирующих между собой. Однако самая интересная часть их семейной жизни начинается в тот момент, когда им поступают указания ликвидировать друг друга. Каждый из супругов, возмущенный и обиженный обманом своей второй половинки, берется за дело. Что, как не охота такого рода способно лучшим образом освежить супружеские отношения наемных убийц?


MPAA: PG-13 - Детям до 13 лет просмотр не желателен
Страна: США
Студия: Epsilon Motion Pictures, New Regency Pictures, Regency Enterprises, Summit Entertainment, Weed Road Pictures
Продолжительность: 01:59:58
Перевод: Профессиональный (дублированный), Профессиональный (многоголосый, закадровый), Профессиональный (двухголосый, закадровый), Авторский (одноголосый, закадровый)

Файл
Качество: WEB-DL 1080p | Amazon | spartanec163
Формат: Matroska
Видео: 1920x1080 at 23.976 fps, MPEG4-AVC, ~9800 kbps avg
Аудио#1: Russian: 48 kHz, AC3, 3/2 (L,C,R,l,r) + LFE ch, ~448 kbps avg |Дубляж, R5|
Аудио#2: Russian: 48 kHz, AC3, 2/0 (L,R) ch, ~192 kbps avg |Многоголосый закадровый, СТС|
Аудио#3: Russian: 48 kHz, AC3, 3/2 (L,C,R,l,r) + LFE ch, ~448 kbps avg |Двухголосый закадровый, П.Гланц и И.Королёва|
Аудио#4: Russian: 48 kHz, AC3, 3/2 (L,C,R,l,r) + LFE ch, ~448 kbps avg |Авторский, А.Гаврилов|
Аудио#5: English: 48 kHz, AC3, 3/2 (L,C,R,l,r) + LFE ch, ~448 kbps avg
Субтитры: Russian (R5), English (SDH)

***Сохранены и подписаны оригинальные главы

Первым выбором на роль миссис Смит стала Николь Кидман. В свою очередь, роль мистера Смита изначально предполагалась для Джонни Деппа, однако актер был настолько нагружен другими проектами, что предпочел отклонить это предложение. Также на роль миссис Смит предлагались кандидатуры Кэтрин Зета-Джонс и Кейт Бланшетт, а роль мистера Смита мог исполнить реальный Смит (Уилл).
Брэд Питт покинул проект после того, как из него ушла Николь Кидман. Однако, как только согласие на роль дала Анджелина Джоли, актёр вновь подтвердил своё участие.
Для того, чтобы получить приемлемый для проката подобной картины рейтинг (PG-13), создателям картины пришлось вырезать постельную сцену между персонажами Питта и Джоли.
Одна из жертв мистера Смита — Бенджамин — в начале фильма красуется в майке с названием фильма «Бойцовский клуб» (1999), в котором сыграл одну из главных ролей Брэд Питт.
В фильме есть элементы сериала «Мистер и миссис Смит» (1996) и эксцентрической комедии Альфреда Хичкока «Мистер и миссис Смит» (1941).
Съемки фильма проходили в Сан Марино, штат Калифорния.
[*]В разгар съемок ленты Питт на 3 месяца оставил проект, чтобы сняться в фильме «Двенадцать друзей Оушена» (2004).
General
Unique ID : 222995265023336817130740465869436428269 (0xA7C3536A055C7EDF9C529215E1771FED)
Complete name : Mr.&.Mrs.Smith.2005.Theatrical.Cut.WEB-DL.1080p.Open.Matte.4xRus.Eng.mkv
Format : Matroska
Format version : Version 2
File size : 10.1 GiB
Duration : 1 h 59 min
Overall bit rate : 12.1 Mb/s
Movie name : Мистер и миссис Смит / Mr. & Mrs. Smith (2005)
Encoded date : UTC 2020-07-26 15:19:22
Writing application : mkvmerge v5.8.0 ('No Sleep / Pillow') built on Sep 2 2012 15:37:04
Writing library : libebml v1.2.3 + libmatroska v1.3.0

Video
ID : 1
Format : AVC
Format/Info : Advanced Video Codec
Format profile : High@L4
Format settings : CABAC / 4 Ref Frames
Format settings, CABAC : Yes
Format settings, Reference fra : 4 frames
Codec ID : V_MPEG4/ISO/AVC
Duration : 1 h 59 min
Bit rate : 9 839 kb/s
Width : 1 920 pixels
Height : 1 080 pixels
Display aspect ratio : 16:9
Frame rate mode : Constant
Frame rate : 23.976 (24000/1001) FPS
Color space : YUV
Chroma subsampling : 4:2:0
Bit depth : 8 bits
Scan type : Progressive
Bits/(Pixel*Frame) : 0.198
Stream size : 8.24 GiB (82%)
Language : English
Default : Yes
Forced : No
Color range : Limited
Color primaries : BT.709
Transfer characteristics : BT.709
Matrix coefficients : BT.709

Audio #1
ID : 2
Format : AC-3
Format/Info : Audio Coding 3
Commercial name : Dolby Digital
Codec ID : A_AC3
Duration : 1 h 59 min
Bit rate mode : Constant
Bit rate : 448 kb/s
Channel(s) : 6 channels
Channel layout : L R C LFE Ls Rs
Sampling rate : 48.0 kHz
Frame rate : 31.250 FPS (1536 SPF)
Bit depth : 16 bits
Compression mode : Lossy
Stream size : 384 MiB (4%)
Title : Дубляж | R5
Language : Russian
Service kind : Complete Main
Default : Yes
Forced : No

Audio #2
ID : 3
Format : AC-3
Format/Info : Audio Coding 3
Commercial name : Dolby Digital
Codec ID : A_AC3
Duration : 1 h 59 min
Bit rate mode : Constant
Bit rate : 192 kb/s
Channel(s) : 2 channels
Channel layout : L R
Sampling rate : 48.0 kHz
Frame rate : 31.250 FPS (1536 SPF)
Bit depth : 16 bits
Compression mode : Lossy
Stream size : 165 MiB (2%)
Title : Многоголосый | СТС
Language : Russian
Service kind : Complete Main
Default : No
Forced : No

Audio #3
ID : 4
Format : AC-3
Format/Info : Audio Coding 3
Commercial name : Dolby Digital
Codec ID : A_AC3
Duration : 1 h 59 min
Bit rate mode : Constant
Bit rate : 448 kb/s
Channel(s) : 6 channels
Channel layout : L R C LFE Ls Rs
Sampling rate : 48.0 kHz
Frame rate : 31.250 FPS (1536 SPF)
Bit depth : 16 bits
Compression mode : Lossy
Stream size : 384 MiB (4%)
Title : Двухголосый | П.Гланц и И.Королёва
Language : Russian
Service kind : Complete Main
Default : No
Forced : No

Audio #4
ID : 5
Format : AC-3
Format/Info : Audio Coding 3
Commercial name : Dolby Digital
Codec ID : A_AC3
Duration : 1 h 59 min
Bit rate mode : Constant
Bit rate : 448 kb/s
Channel(s) : 6 channels
Channel layout : L R C LFE Ls Rs
Sampling rate : 48.0 kHz
Frame rate : 31.250 FPS (1536 SPF)
Bit depth : 16 bits
Compression mode : Lossy
Stream size : 384 MiB (4%)
Title : Авторский | А.Гаврилов
Language : Russian
Service kind : Complete Main
Default : No
Forced : No

Audio #5
ID : 6
Format : AC-3
Format/Info : Audio Coding 3
Commercial name : Dolby Digital
Codec ID : A_AC3
Duration : 1 h 59 min
Bit rate mode : Constant
Bit rate : 448 kb/s
Channel(s) : 6 channels
Channel layout : L R C LFE Ls Rs
Sampling rate : 48.0 kHz
Frame rate : 31.250 FPS (1536 SPF)
Bit depth : 16 bits
Compression mode : Lossy
Stream size : 384 MiB (4%)
Language : English
Service kind : Complete Main
Default : No
Forced : No

Text #1
ID : 7
Format : UTF-8
Codec ID : S_TEXT/UTF8
Codec ID/Info : UTF-8 Plain Text
Title : Full | R5
Language : Russian
Default : No
Forced : No

Text #2
ID : 8
Format : UTF-8
Codec ID : S_TEXT/UTF8
Codec ID/Info : UTF-8 Plain Text
Title : SDH
Language : English
Default : No
Forced : No

Menu
00:00:00.000 : en:Studio Logos
00:00:37.000 : en:The Smith's Go to Marriage Counseling, Opening Credits
00:02:19.000 : en:Police Search for Tourists Traveling Alone
00:03:37.000 : en:John and Jane Drink and Dance
00:04:58.000 : en:John Brings Jane Breakfast
00:06:29.000 : en:John and Jane Go on a Date
00:07:49.000 : en:John and Jane Tell Friends They're Getting Married
00:09:04.000 : en:The Smiths Start a Typical Morning
00:10:38.000 : en:Benjamin Gets an Assignment
00:11:33.000 : en:John Comes Home
00:14:13.000 : en:The Smiths Complain about Marriage
00:17:16.000 : en:The Smiths Go to Separate Jobs
00:22:50.000 : en:The Smiths Go to a Neighbor's Party
00:25:22.000 : en:The Smiths Prepare to Receive New Assignments
00:30:02.000 : en:The Smiths Go After Benjamin
00:34:50.000 : en:The Smiths Try to Figure Out Who Botched Their Jobs
00:37:50.000 : en:John and Jane Discover One Another's Identities
00:39:26.000 : en:The Smiths Have a Tense Dinner
00:46:49.000 : en:The Smiths Tell Their Friends about Their Situations
00:50:13.000 : en:Jane's Team Searches Her House
00:52:55.000 : en:John Visits Jane
00:56:01.000 : en:John Finds a Clue in the Furnace
00:56:59.000 : en:Jane Threatens John
01:00:45.000 : en:John and Jane Tango
01:05:59.000 : en:The Smiths Talk about Their Relationship
01:07:56.000 : en:John and Jane Arrive Home
01:10:16.000 : en:John and Jane Fight with Each Other
01:17:30.000 : en:The Smiths Become Targets
01:18:03.000 : en:The Smiths Reminisce about Past Missions
01:19:48.000 : en:Assassins Attempt to Kill the Smiths
01:23:56.000 : en:The Smiths Learn More about Each Other While Eluding Assassins
01:29:05.000 : en:The Smiths Meet with Eddie for More Information
01:31:05.000 : en:Jane Gets Information on Benjamin
01:31:27.000 : en:The Smiths Go After Benjamin
01:35:33.000 : en:The Smiths Argue about Teamwork
01:36:46.000 : en:The Smiths Learn They Were Set Up
01:39:43.000 : en:The Smiths Escape and Plan to Fight
01:41:37.000 : en:The Smiths Defend Themselves from Assassins
01:47:56.000 : en:The Smiths Prepare for the Final Assault
01:50:01.000 : en:The Smiths Go Out Guns Blazing
01:51:26.000 : en:John and Jane Speak about Their Rekindled Marriage
01:52:26.000 : en:End Credits



У вас нет необходимых прав для просмотра вложений в этом сообщении.


Вернуться к началу
 Профиль  
Ответить с цитатой  
  • Торрент
Автор: Consultants Хэш: ---
Добавлен: 2020-08-01 11:49 Приватный: Нет (DHT включён)
Статус: Проверен
Размер: 10.11 ГБ (10 853 424 350 байт)
Изменил:
---
Скачали: 0 (Раздающих: 0%)
Причина:
---
Здоровье: 0%
Сидеров: 0 Личеров: 0
Скорость раздачи: 0 байт/сек Скорость скачивания: 0 байт/сек
Последний сидер: Нет Последний личер: Нет
Для скачивания торрента необходимо зарегистрироваться или войти на трекер.
Показать сообщения за:  Поле сортировки  
Начать новую тему Ответить на тему  [ 1 сообщение ] 

Часовой пояс: UTC + 3 часа


Кто сейчас на конференции

Сейчас этот форум просматривают: нет зарегистрированных пользователей и гости: 2


Вы не можете начинать темы
Вы не можете отвечать на сообщения
Вы не можете редактировать свои сообщения
Вы не можете удалять свои сообщения
Вы не можете добавлять вложения

Найти:
Перейти:  
Переместиться наверх
 Главная |  Список форумов |   Time : 0.083s | 15 Queries | GZIP : Off |
tracker_cron