Часовой пояс: UTC + 3 часа




Начать новую тему Ответить на тему  [ 1 сообщение ] 
Автор Сообщение
СообщениеДобавлено: 2020-08-01 11:50 
Не в сети
Администратор
Администратор
Аватара пользователя
Раздал: 1.24 ТБ
Скачал: 2.7 ГБ
Ратио: 470.569


Зарегистрирован: 2014-03-16 00:45
Сообщения: 2995
#777Информация о фильме
Название: Зловещие мертвецы: Черная книга
Оригинальное название: Evil Dead
Год выпуска: 2013
Жанр: ужасы, фэнтези, триллер, ремейк
Выпущено: США, FilmDistrict, Ghost House Pictures, TriStar Pictures
Режиссер: Федерико Альварес
В ролях: Джейн Леви, Шайло Фернандес, Лу Тэйлор Пуччи, Джессика Лукас, Элизабет Блэкмор, Феникс Коннолли, Джим МакЛарти, Сиан Дэвис, Стефен Баттерворф, Карл Виллетц

О фильме: Главный герой отвозит свою младшую сестру в лесной домик для того, чтобы помочь ей избавиться от наркотической зависимости. Оказавшись без «дури», девушка буквально сходит с ума, из-за чего становится невозможно определить, почему она ведет себя именно так: из-за ломки или же благодаря деятельности обитателей «Книги мертвых». Особенно после того, как один из ее приятелей прочел вслух отрывок из этой самой книги.


Продолжительность: 01:31:18
Перевод: дублированный, авторский
Субтитры: русские, английские

Файл
Качество: BDRip (1080p)
Видео: MPEG-4 AVC, 10.9 Мбит/с, 1920x804

Аудио#1: Русский (AC3, 6 ch, 640 Кбит/с) дубляж
Аудио#2: Русский (AC3, 6 ch, 640 Кбит/с) Карповский - отдельный файл
Аудио#3: Русский (AC3, 6 ch, 640 Кбит/с) Матвеев - отдельный файл
Аудио#4: Английский (AC3, 6 ch, 640 Кбит/с) оригинал

Формат : Matroska
Версия формата : Version 2
Размер файла : 7,75 Гбайт
Продолжительность : 1 ч. 31 м.
Общий поток : 12,1 Мбит/сек
Название фильма : ~V ad~
Дата кодирования : UTC 2013-07-17 12:39:50
Программа кодирования : mkvmerge v6.3.0 ('You can't stop me!') built on Jun 28 2013 20:09:41
Библиотека кодирования : libebml v1.3.0 + libmatroska v1.4.0

Видео
Идентификатор : 1
Формат : AVC
Формат/Информация : Advanced Video Codec
Профиль формата : High@L4.1
Настройки формата : CABAC / 5 Ref Frames
Параметр CABAC формата : Да
Параметр RefFrames формата : 5 кадров
Идентификатор кодека : V_MPEG4/ISO/AVC
Продолжительность : 1 ч. 31 м.
Битрейт : 10,9 Мбит/сек
Ширина : 1 920 пикселей
Высота : 804 пикселя
Соотношение сторон : 2,40:1
Режим частоты кадров : Постоянный
Частота кадров : 23,976 кадра/сек
Цветовое пространство : YUV
Субдискретизация насыщенности : 4:2:0
Битовая глубина : 8 бит
Тип развёртки : Прогрессивная
Бит/(Пиксели*Кадры) : 0.294
Размер потока : 6,78 Гбайт (87%)
Заголовок : ~V~
Библиотека кодирования : x264 core 133 r2334 a3ac64b
Настройки программы : cabac=1 / ref=5 / deblock=1:-2:-2 / analyse=0x3:0x133 / me=umh / subme=10 / psy=1 / psy_rd=1.05:0.20 / mixed_ref=1 / me_range=32 / chroma_me=1 / trellis=2 / 8x8dct=1 / cqm=0 / deadzone=21,11 / fast_pskip=0 / chroma_qp_offset=-3 / threads=12 / lookahead_threads=2 / sliced_threads=0 / nr=0 / decimate=0 / interlaced=0 / bluray_compat=0 / constrained_intra=0 / bframes=8 / b_pyramid=2 / b_adapt=2 / b_bias=0 / direct=3 / weightb=1 / open_gop=0 / weightp=2 / keyint=240 / keyint_min=23 / scenecut=40 / intra_refresh=0 / rc=2pass / mbtree=0 / bitrate=10863 / ratetol=1.0 / qcomp=0.60 / qpmin=0 / qpmax=69 / qpstep=4 / cplxblur=20.0 / qblur=0.5 / ip_ratio=1.40 / pb_ratio=1.30 / aq=1:0.90
Язык : English
Default : Да
Forced : Нет
Duration_Source : General_Duration

Аудио #1
Идентификатор : 2
Формат : AC-3
Формат/Информация : Audio Coding 3
Коммерческое название : Dolby Digital
Идентификатор кодека : A_AC3
Продолжительность : 1 ч. 31 м.
Вид битрейта : Постоянный
Битрейт : 640 Кбит/сек
Каналы : 6 каналов
Channel layout : L R C LFE Ls Rs
Частота : 48,0 КГц
Частота кадров : 31,250 кадров/сек (1536 SPF)
Метод сжатия : С потерями
Размер потока : 418 Мбайт (5%)
Заголовок : AC3 5.1 @ 640 kbps - дубляж, Blu-ray CEE
Язык : Russian
Service kind : Complete Main
Default : Да
Forced : Да
Duration_Source : General_Duration

Аудио #2
Идентификатор : 8
Формат : AC-3
Формат/Информация : Audio Coding 3
Коммерческое название : Dolby Digital
Идентификатор кодека : A_AC3
Продолжительность : 1 ч. 31 м.
Вид битрейта : Постоянный
Битрейт : 640 Кбит/сек
Каналы : 6 каналов
Channel layout : L R C LFE Ls Rs
Частота : 48,0 КГц
Частота кадров : 31,250 кадров/сек (1536 SPF)
Метод сжатия : С потерями
Размер потока : 418 Мбайт (5%)
Заголовок : AC3 5.1 @ 640 kbps, оригинал
Язык : English
Service kind : Complete Main
Default : Нет
Forced : Нет
Duration_Source : General_Duration

Текст #1
Идентификатор : 3
Формат : UTF-8
Идентификатор кодека : S_TEXT/UTF8
Идентификатор кодека/Информация : UTF-8 Plain Text
Заголовок : Blu-ray CEE
Язык : Russian
Default : Нет
Forced : Нет

Текст #2
Идентификатор : 4
Формат : UTF-8
Идентификатор кодека : S_TEXT/UTF8
Идентификатор кодека/Информация : UTF-8 Plain Text
Заголовок : SDH
Язык : English
Default : Нет
Forced : Нет

Текст #3
Идентификатор : 5
Формат : UTF-8
Идентификатор кодека : S_TEXT/UTF8
Идентификатор кодека/Информация : UTF-8 Plain Text
Заголовок : Commentary
Язык : English
Default : Нет
Forced : Нет

Текст #4
Идентификатор : 6
Формат : UTF-8
Идентификатор кодека : S_TEXT/UTF8
Идентификатор кодека/Информация : UTF-8 Plain Text
Язык : Russian
Default : Нет
Forced : Нет

Текст #5
Идентификатор : 7
Формат : UTF-8
Идентификатор кодека : S_TEXT/UTF8
Идентификатор кодека/Информация : UTF-8 Plain Text
Язык : English
Default : Нет
Forced : Нет

Меню
00:00:00.000 : en:Chapter 1
00:05:10.310 : en:Chapter 2
00:09:46.085 : en:Chapter 3
00:14:24.030 : en:Chapter 4
00:18:34.030 : en:Chapter 5
00:23:14.310 : en:Chapter 6
00:30:38.045 : en:Chapter 7
00:35:34.799 : en:Chapter 8
00:40:36.476 : en:Chapter 9
00:49:43.480 : en:Chapter 10
00:55:24.238 : en:Chapter 11
01:01:35.191 : en:Chapter 12
01:08:35.778 : en:Chapter 13
01:14:05.983 : en:Chapter 14
01:17:24.974 : en:Chapter 15
01:20:36.248 : en:Chapter 16




Релиз от:


У вас нет необходимых прав для просмотра вложений в этом сообщении.


Вернуться к началу
 Профиль  
Ответить с цитатой  
  • Торрент
Автор: Consultants Хэш: ---
Добавлен: 2020-08-01 11:50 Приватный: Нет (DHT включён)
Статус: Проверен
Размер: 8.56 ГБ (9 194 054 842 байт)
Изменил:
---
Скачали: 0 (Раздающих: 0%)
Причина:
---
Здоровье: 0%
Сидеров: 0 Личеров: 0
Скорость раздачи: 0 байт/сек Скорость скачивания: 0 байт/сек
Последний сидер: Нет Последний личер: Нет
Для скачивания торрента необходимо зарегистрироваться или войти на трекер.
Показать сообщения за:  Поле сортировки  
Начать новую тему Ответить на тему  [ 1 сообщение ] 

Часовой пояс: UTC + 3 часа


Кто сейчас на конференции

Сейчас этот форум просматривают: нет зарегистрированных пользователей и гости: 2


Вы не можете начинать темы
Вы не можете отвечать на сообщения
Вы не можете редактировать свои сообщения
Вы не можете удалять свои сообщения
Вы не можете добавлять вложения

Найти:
Перейти:  
cron
Переместиться наверх
 Главная |  Список форумов |   Time : 0.104s | 15 Queries | GZIP : Off |