Часовой пояс: UTC + 3 часа




Начать новую тему Ответить на тему  [ 1 сообщение ] 
Автор Сообщение
СообщениеДобавлено: 2020-10-20 22:04 
Не в сети
VIP-персона
VIP-персона
Аватара пользователя
Раздал: 2.61 ГБ
Скачал: 0 байт
Ратио: Seed.


Зарегистрирован: 2020-08-26 21:32
Сообщения: 350
Не вижу смерти / Blind


#777

Информация о фильме
Название: Не вижу смерти
Оригинальное название: Blind
Год выхода: 2019
Страна: США
Студия: Silent Partners
Продолжительность: 01:28:12
Перевод: Дублированный | iTunes
Жанр: Ужасы, триллер, драма

Режиссер: Марсель Вальц

В ролях:
Скарлет Салем, Джед Роуэн, Кэролайн Уильямс, Тайлер Галлант, Томас Хейли, Бен Каплан, Джессика Галетти, Шери Дэвис, Кевин Купер, Майкл Ст. Майклс

О фильме:
Бывшая кинозвезда, ослепнув после неудачной операции по коррекции зрения, пытается смириться с новой жизнью во тьме. Ее дни в особняке на Голливудских холмах разбавлены общением с подругой Софией и новым поклонником Люком. Но никто из них понятия не имеет о том, что в подвале дома тайно проживает еще один человек в маске, который с нетерпением ждет темноты, чтобы начать свою опасную игру.



Файл
Формат: MKV
Качество: WEB-DL 1080p
Видео: MPEG-4 AVC, 1920x808, 4553 kbps, 24.000 fps
Аудио: Russian: АС3, 48 kHz, 6 ch, 384 kbps - DUB, iTunes
Субтитры: Нет


General
Unique ID : 46091584267754555905266125966427767065 (0x22ACEA8E376CB50463F118769DD34119)
Complete name : BLIND_2019_WEB-DL_1080p-BLUEBIRD.mkv
Format : Matroska
Format version : Version 4
File size : 3.05 GiB
Duration : 1 h 28 min
Overall bit rate : 4 944 kb/s
Encoded date : UTC 2020-10-19 18:12:58
Writing application : mkvmerge v43.0.0 ('The Quartermaster') 64-bit
Writing library : libebml v1.3.10 + libmatroska v1.5.2
Cover : Yes
Attachments : cover.png

Video
ID : 1
Format : AVC
Format/Info : Advanced Video Codec
Format profile : High@L4
Format settings : CABAC / 5 Ref Frames
Format settings, CABAC : Yes
Format settings, Reference : 5 frames
Codec ID : V_MPEG4/ISO/AVC
Duration : 1 h 28 min
Bit rate : 4 553 kb/s
Width : 1 920 pixels
Height : 808 pixels
Display aspect ratio : 2.40:1
Frame rate mode : Constant
Frame rate : 24.000 FPS
Color space : YUV
Chroma subsampling : 4:2:0
Bit depth : 8 bits
Scan type : Progressive
Bits/(Pixel*Frame) : 0.122
Stream size : 2.81 GiB (92%)
Language : English
Default : Yes
Forced : No
Color range : Limited
Color primaries : BT.709
Transfer characteristics : BT.709
Matrix coefficients : BT.709

Audio
ID : 2
Format : AC-3
Format/Info : Audio Coding 3
Commercial name : Dolby Digital
Codec ID : A_AC3
Duration : 1 h 28 min
Bit rate mode : Constant
Bit rate : 384 kb/s
Channel(s) : 6 channels
Channel layout : L R C LFE Ls Rs
Sampling rate : 48.0 kHz
Frame rate : 31.250 FPS (1536 SPF)
Bit depth : 16 bits
Compression mode : Lossy
Stream size : 242 MiB (8%)
Title : [DUB] DD 5.1 @ 384 kbps (iTunes)
Language : Russian
Service kind : Complete Main
Default : Yes
Forced : No

Menu
00:00:00.000 : en:Глава 1
00:06:23.916 : en:Глава 2
00:15:34.249 : en:Глава 3
00:30:10.415 : en:Глава 4
00:34:33.915 : en:Глава 5
00:40:54.206 : en:Глава 6
00:50:13.372 : en:Глава 7
01:02:39.955 : en:Глава 8
01:09:44.788 : en:Глава 9
01:14:57.329 : en:Глава 10


Релиз от:


У вас нет необходимых прав для просмотра вложений в этом сообщении.


Вернуться к началу
 Профиль  
Ответить с цитатой  
  • Торрент
Автор: Amigos Хэш: ---
Добавлен: 2020-10-20 22:04 Приватный: Нет (DHT включён)
Статус: Проверен
Размер: 3.05 ГБ (3 271 303 875 байт)
Изменил:
---
Скачали: 0 (Раздающих: 0%)
Причина:
---
Здоровье: 0%
Сидеров: 0 Личеров: 0
Скорость раздачи: 0 байт/сек Скорость скачивания: 0 байт/сек
Последний сидер: Нет Последний личер: Нет
Для скачивания торрента необходимо зарегистрироваться или войти на трекер.
Показать сообщения за:  Поле сортировки  
Начать новую тему Ответить на тему  [ 1 сообщение ] 

Часовой пояс: UTC + 3 часа


Кто сейчас на конференции

Сейчас этот форум просматривают: нет зарегистрированных пользователей и гости: 10


Вы не можете начинать темы
Вы не можете отвечать на сообщения
Вы не можете редактировать свои сообщения
Вы не можете удалять свои сообщения
Вы не можете добавлять вложения

Найти:
Перейти:  
cron
Переместиться наверх
 Главная |  Список форумов |   Time : 0.120s | 15 Queries | GZIP : Off |
tracker_cron