Часовой пояс: UTC + 3 часа




Начать новую тему Ответить на тему  [ 1 сообщение ] 
Автор Сообщение
СообщениеДобавлено: 2020-10-20 22:08 
Не в сети
VIP-персона
VIP-персона
Аватара пользователя
Раздал: 2.61 ГБ
Скачал: 0 байт
Ратио: Seed.


Зарегистрирован: 2020-08-26 21:32
Сообщения: 350
Неистовый / Unhinged


#777

Информация о фильме
Название: Неистовый
Оригинальное название: Unhinged
Год выхода: 2020
Страна: США
Студия: Burek Films, Ingenious, Solstice Studios
Продолжительность: 01:26:34
Перевод: Дублированный | iTunes
Жанр: Боевик, триллер

Режиссер: Деррик Борте

В ролях:
Расселл Кроу, Джимми Симпсон, Карен Писториус, Гэбриел Бейтман, Остин П. МакКензи, Энн Мари Лейтон, Майкл Пападжон, Люси Фауст, Сильвия Грэйс Крим, Стивен Луис Граш

О фильме:
Нет ничего опаснее человека, доведенного до точки кипения. Особенно, если жизнь обошлась с ним несправедливо и теперь ему нечего терять. Именно таким оказывается водитель автомобиля, с которым повздорила на дороге обычная мать-одиночка, не подозревая, что нажила себе безжалостного врага. Теперь он не остановится пока не преподаст страшный урок своей жертве и всем, кто ей дорог. У женщины и ее сына не остается другого выбора, кроме как попытаться выжить в этой набирающей скорость смертельной игре.




Качество: WEB-DL 1080p
Видео: MPEG-4 AVC, 1920x800, 4557 Kbit/s, 25.000 fps
Аудио #01: 48 kHz, AC3, 5.1, 384 Kbps | iTunes | RUS |
Аудио #02: 48 kHz, AC3, 5.1, 384 Kbps | Оригинал | ENG |
Субтитры: Русские (Full)



General
Unique ID : 336735875118418796530455735683392991948 (0xFD54F87442C97D9B2A79BAD3D8A3F2CC)
Complete name : D:Video111Unhinged.2020.WEB-DL.1080p.seleZen.mkv
Format : Matroska
Format version : Version 4
File size : 3.22 GiB
Duration : 1 h 26 min
Overall bit rate : 5 328 kb/s
Movie name : Unhinged 2020 from селезень
Encoded date : UTC 2020-10-19 18:23:29
Writing application : mkvmerge v40.0.0 ('Old Town Road + Pony') 64-bit
Writing library : libebml v1.3.9 + libmatroska v1.5.2
Cover : Yes
Attachments : cover.jpg

Video
ID : 1
Format : AVC
Format/Info : Advanced Video Codec
Format profile : High@L4
Format settings : CABAC / 5 Ref Frames
Format settings, CABAC : Yes
Format settings, Reference : 5 frames
Codec ID : V_MPEG4/ISO/AVC
Duration : 1 h 26 min
Bit rate : 4 557 kb/s
Width : 1 920 pixels
Height : 800 pixels
Display aspect ratio : 2.40:1
Frame rate mode : Constant
Frame rate : 25.000 FPS
Color space : YUV
Chroma subsampling : 4:2:0
Bit depth : 8 bits
Scan type : Progressive
Bits/(Pixel*Frame) : 0.119
Stream size : 2.76 GiB (86%)
Language : English
Default : Yes
Forced : No
Color range : Limited
Color primaries : BT.709
Transfer characteristics : BT.709
Matrix coefficients : BT.709

Audio #1
ID : 2
Format : AC-3
Format/Info : Audio Coding 3
Commercial name : Dolby Digital
Codec ID : A_AC3
Duration : 1 h 26 min
Bit rate mode : Constant
Bit rate : 384 kb/s
Channel(s) : 6 channels
Channel layout : L R C LFE Ls Rs
Sampling rate : 48.0 kHz
Frame rate : 31.250 FPS (1536 SPF)
Compression mode : Lossy
Stream size : 238 MiB (7%)
Title : iTunes
Language : Russian
Service kind : Complete Main
Default : Yes
Forced : Yes

Audio #2
ID : 3
Format : AC-3
Format/Info : Audio Coding 3
Commercial name : Dolby Digital
Codec ID : A_AC3
Duration : 1 h 26 min
Bit rate mode : Constant
Bit rate : 384 kb/s
Channel(s) : 6 channels
Channel layout : L R C LFE Ls Rs
Sampling rate : 48.0 kHz
Frame rate : 31.250 FPS (1536 SPF)
Compression mode : Lossy
Stream size : 238 MiB (7%)
Title : Original
Language : English
Service kind : Complete Main
Default : No
Forced : No

Text
ID : 4
Format : UTF-8
Codec ID : S_TEXT/UTF8
Codec ID/Info : UTF-8 Plain Text
Duration : 1 h 14 min
Bit rate : 93 b/s
Count of elements : 1001
Stream size : 51.3 KiB (0%)
Title : Full
Language : Russian
Default : No
Forced : No

Menu
00:00:00.000 : en:Глава 1
00:04:45.680 : en:Глава 2
00:07:37.440 : en:Глава 3
00:15:24.480 : en:Глава 4
00:25:03.840 : en:Глава 5
00:35:19.960 : en:Глава 6
00:43:38.360 : en:Глава 7
00:50:52.280 : en:Глава 8
00:59:24.640 : en:Глава 9
01:07:52.000 : en:Глава 10
01:15:51.760 : en:Глава 11


Релиз:



У вас нет необходимых прав для просмотра вложений в этом сообщении.


Вернуться к началу
 Профиль  
Ответить с цитатой  
  • Торрент
Автор: Amigos Хэш: ---
Добавлен: 2020-10-20 22:08 Приватный: Нет (DHT включён)
Статус: Проверен
Размер: 3.22 ГБ (3 459 224 085 байт)
Изменил:
---
Скачали: 96542 (Раздающих: 0%)
Причина:
---
Здоровье: 100%
Сидеров: 9396 Личеров: 300
Скорость раздачи: 0 байт/сек Скорость скачивания: 0 байт/сек
Последний сидер: 25 дней 16 часов 49 минут 17 секунд назад Последний личер: 25 дней 16 часов 49 минут 17 секунд назад
Для скачивания торрента необходимо зарегистрироваться или войти на трекер.
Показать сообщения за:  Поле сортировки  
Начать новую тему Ответить на тему  [ 1 сообщение ] 

Часовой пояс: UTC + 3 часа


Кто сейчас на конференции

Сейчас этот форум просматривают: нет зарегистрированных пользователей и гости: 5


Вы не можете начинать темы
Вы не можете отвечать на сообщения
Вы не можете редактировать свои сообщения
Вы не можете удалять свои сообщения
Вы не можете добавлять вложения

Найти:
Перейти:  
Переместиться наверх
 Главная |  Список форумов |   Time : 0.089s | 15 Queries | GZIP : Off |
tracker_cron