Часовой пояс: UTC + 3 часа




Начать новую тему Ответить на тему  [ 1 сообщение ] 
Автор Сообщение
 Заголовок сообщения: Скала / The Rock (1996) BDRip 720p от NNNB | D, P, A
СообщениеДобавлено: 2020-11-09 20:31 
Не в сети
Супермодератор
Супермодератор
Аватара пользователя
Раздал: 21.76 ГБ
Скачал: 0 байт
Ратио: Seed.


Зарегистрирован: 2018-11-16 11:27
Сообщения: 309
Скала / The Rock
«Cocked, locked, and Ready to Rock!»


#777

Русское название: Скала
Оригинальное название: The Rock
Год выпуска: 1996
Выпущено: США
Перевод: Дублированный, Профессиональный многоголосый, Авторский одноголосый
Продолжительность: 02:16:37
Жанр: боевик, триллер, приключения

Режиссер: Майкл Бэй

В ролях:
Шон Коннери , Николас Кейдж , Эд Харрис
, Джон Спенсер , Дэвид Морс , Уильям Форсайт , Майкл Бин , Ванесса Марсил , Джон К. МакГинли , Грегори Спорледер , Тони Тодд , Букем Вудбайн


Сюжет фильма:
Генерал элитных диверсионных спецсил США, за плечами которого опыт чуть ли не всех войн планеты, похищает со своими лучшими подчиненными ракеты со смертоносным газом и захватывает в заложники туристов в бывшей тюрьме «Алькатрас», находящейся на острове в бухте Сан-Франциско.



Качество: BDRip 720p
Формат: AVC (библиотека кодирования x.264)
Контейнер (Расширение): MKV
Видео: 1280x544, 7000 Кбит/сек, 23,976 кадр/сек, 0,419 Бит/[Пиксели*Кадры]
Аудио №1: русский / AC3 / 5.1 / 48 kHz / 640 kbps / 16 bit |Дублированный|
Аудио №2: русский / AC3 / 5.1 / 48 kHz / 640 kbps / 16 bit |MVO, Карусель|
Аудио №3: русский / AC3 / 5.1 / 48 kHz / 640 kbps / 16 bit |AVO, А.Гаврилов|
Аудио №4: русский / AC3 / 5.1 / 48 kHz / 640 kbps / 16 bit |AVO, Ю.Живов|
Аудио №5: русский / AC3 / 5.1 / 48 kHz / 640 kbps / 16 bit |AVO, М.Яроцкий (kyberpunk)|
Аудио №6: английский / AC3 / 5.1 / 48 kHz / 640 kbps /
Субтитры: русские (Forced), русские (Full), английские (Full), английские (SDH)
Навигация по главам(Чаптеры): есть


Format : Matroska
Format version : Version 2
File size : 10.3 GiB
Duration : 2h 16mn
Overall bit rate : 10.8 Mbps
Movie name : The Rock.(1996).BDRip.720p.[denis100]
Encoded date : UTC 2016-02-07 12:01:03
Writing application : mkvmerge v5.8.0 ('No Sleep / Pillow') built on Sep 2 2012 15:37:04
Writing library : libebml v1.2.3 + libmatroska v1.3.0

Video
ID : 1
Format : AVC
Format/Info : Advanced Video Codec
Format profile : High@L4.1
Format settings, CABAC : Yes
Format settings, ReFrames : 11 frames
Codec ID : V_MPEG4/ISO/AVC
Duration : 2h 16mn
Bit rate : 7 000 Kbps
Width : 1 280 pixels
Height : 544 pixels
Display aspect ratio : 2.35:1
Frame rate : 23.976 fps
Color space : YUV
Chroma subsampling : 4:2:0
Bit depth : 8 bits
Scan type : Progressive
Bits/(Pixel*Frame) : 0.419
Stream size : 6.47 GiB (63%)
Title : The Rock.(1996).BDRip.720p.[denis100]
Writing library : x264 core 148 r2638 7599210
Encoding settings : cabac=1 / ref=11 / deblock=1:-3:-3 / analyse=0x3:0x133 / me=umh / subme=11 / psy=1 / psy_rd=1.00:0.15 / mixed_ref=1 / me_range=48 / chroma_me=1 / trellis=2 / 8x8dct=1 / cqm=0 / deadzone=21,11 / fast_pskip=0 / chroma_qp_offset=-3 / threads=6 / lookahead_threads=1 / sliced_threads=0 / nr=0 / decimate=1 / interlaced=0 / bluray_compat=0 / constrained_intra=0 / bframes=12 / b_pyramid=2 / b_adapt=2 / b_bias=0 / direct=3 / weightb=1 / open_gop=0 / weightp=2 / keyint=240 / keyint_min=23 / scenecut=40 / intra_refresh=0 / rc=2pass / mbtree=0 / bitrate=7000 / ratetol=1.0 / qcomp=0.60 / qpmin=0 / qpmax=69 / qpstep=4 / cplxblur=20.0 / qblur=0.5 / ip_ratio=1.40 / pb_ratio=1.30 / aq=1:0.80
Language : English
Default : Yes
Forced : No

Audio #1
ID : 2
Format : AC-3
Format/Info : Audio Coding 3
Mode extension : CM (complete main)
Codec ID : A_AC3
Duration : 2h 16mn
Bit rate mode : Constant
Bit rate : 640 Kbps
Channel(s) : 6 channels
Channel positions : Front: L C R, Side: L R, LFE
Sampling rate : 48.0 KHz
Bit depth : 16 bits
Compression mode : Lossy
Stream size : 625 MiB (6%)
Title : DUB
Language : Russian
Default : Yes
Forced : No

Audio #2
ID : 3
Format : AC-3
Format/Info : Audio Coding 3
Mode extension : CM (complete main)
Codec ID : A_AC3
Duration : 2h 16mn
Bit rate mode : Constant
Bit rate : 640 Kbps
Channel(s) : 6 channels
Channel positions : Front: L C R, Side: L R, LFE
Sampling rate : 48.0 KHz
Bit depth : 16 bits
Compression mode : Lossy
Stream size : 625 MiB (6%)
Title : MVO, Карусель
Language : Russian
Default : No
Forced : No

Audio #3
ID : 4
Format : AC-3
Format/Info : Audio Coding 3
Mode extension : CM (complete main)
Codec ID : A_AC3
Duration : 2h 16mn
Bit rate mode : Constant
Bit rate : 640 Kbps
Channel(s) : 6 channels
Channel positions : Front: L C R, Side: L R, LFE
Sampling rate : 48.0 KHz
Bit depth : 16 bits
Compression mode : Lossy
Stream size : 625 MiB (6%)
Title : AVO, А.Гаврилов
Language : Russian
Default : No
Forced : No

Audio #4
ID : 5
Format : AC-3
Format/Info : Audio Coding 3
Mode extension : CM (complete main)
Codec ID : A_AC3
Duration : 2h 16mn
Bit rate mode : Constant
Bit rate : 640 Kbps
Channel(s) : 6 channels
Channel positions : Front: L C R, Side: L R, LFE
Sampling rate : 48.0 KHz
Bit depth : 16 bits
Compression mode : Lossy
Stream size : 625 MiB (6%)
Title : AVO, Ю.Живов
Language : Russian
Default : No
Forced : No

Audio #5
ID : 6
Format : AC-3
Format/Info : Audio Coding 3
Mode extension : CM (complete main)
Codec ID : A_AC3
Duration : 2h 16mn
Bit rate mode : Constant
Bit rate : 640 Kbps
Channel(s) : 6 channels
Channel positions : Front: L C R, Side: L R, LFE
Sampling rate : 48.0 KHz
Bit depth : 16 bits
Compression mode : Lossy
Stream size : 625 MiB (6%)
Title : AVO, М.Яроцкий (kyberpunk)
Language : Russian
Default : No
Forced : No

Audio #6
ID : 7
Format : AC-3
Format/Info : Audio Coding 3
Mode extension : CM (complete main)
Codec ID : A_AC3
Duration : 2h 16mn
Bit rate mode : Constant
Bit rate : 640 Kbps
Channel(s) : 6 channels
Channel positions : Front: L C R, Side: L R, LFE
Sampling rate : 48.0 KHz
Bit depth : 16 bits
Compression mode : Lossy
Stream size : 625 MiB (6%)
Title : Original
Language : English
Default : No
Forced : No

Text #1
ID : 8
Format : UTF-8
Codec ID : S_TEXT/UTF8
Codec ID/Info : UTF-8 Plain Text
Title : Forced
Language : Russian
Default : Yes
Forced : No

Text #2
ID : 9
Format : UTF-8
Codec ID : S_TEXT/UTF8
Codec ID/Info : UTF-8 Plain Text
Title : Full
Language : Russian
Default : No
Forced : No

Text #3
ID : 10
Format : UTF-8
Codec ID : S_TEXT/UTF8
Codec ID/Info : UTF-8 Plain Text
Title : Full
Language : English
Default : No
Forced : No

Text #4
ID : 11
Format : UTF-8
Codec ID : S_TEXT/UTF8
Codec ID/Info : UTF-8 Plain Text
Title : SDH
Language : English
Default : No
Forced : No

Menu
00:00:00.000 : en:Logos
00:00:33.242 : en:Hummel's Promise
00:03:47.686 : en:The Raid
00:07:55.517 : en:October 1, 0900 Hours
00:14:15.772 : en:Ranger Bob's Last Tour
00:16:16.475 : en:In Harm's Way
00:24:57.079 : en:Peach-Flavored Catechism
00:26:44.603 : en:Ghosts of Alcatraz
00:28:41.762 : en:Alcibiades of Alcatraz
00:39:43.631 : en:It's All in the Wrists
00:43:39.742 : en:An E-Ticket
00:49:39.810 : en:32 Stenson Ave
00:53:46.932 : en:Knowing the System
00:55:29.243 : en:Justice
00:59:18.597 : en:Fifteen Hours to Deadline
01:04:45.423 : en:Mason's Old Flame
01:09:13.566 : en:The Trembler
01:14:05.399 : en:The Hanged Man
01:17:07.122 : en:Need to Know
01:18:45.638 : en:Rodent Problem
01:24:15.509 : en:The Morgue
01:28:54.955 : en:Off the Rack
01:34:31.332 : en:A Vicious Patriotism
01:39:52.236 : en:Zeus's Butthole
01:43:02.676 : en:The Hour Is Approaching
01:46:27.548 : en:Glass or Plastic
01:49:48.040 : en:Aborted
01:52:59.106 : en:Back to the Stone Age
01:57:06.561 : en:Rocket Man
02:00:07.700 : en:Green Smoke
02:06:15.651 : en:Forget Maui
02:10:08.634 : en:Fort Walton, Kansas, End Credits
x264 [info]: frame I:1473 Avg QP:16.99 size:107211
x264 [info]: frame P:48663 Avg QP:19.30 size: 56714
x264 [info]: frame B:146402 Avg QP:21.36 size: 29044




Автор рипа:


У вас нет необходимых прав для просмотра вложений в этом сообщении.


Вернуться к началу
 Профиль  
Ответить с цитатой  
  • Торрент
Автор: Klingon Хэш: ---
Добавлен: 2020-11-09 20:31 Приватный: Нет (DHT включён)
Статус: Проверен
Размер: 10.34 ГБ (11 107 460 192 байт)
Изменил:
---
Скачали: 0 (Раздающих: 0%)
Причина:
---
Здоровье: 0%
Сидеров: 0 Личеров: 0
Скорость раздачи: 0 байт/сек Скорость скачивания: 0 байт/сек
Последний сидер: Нет Последний личер: Нет
Для скачивания торрента необходимо зарегистрироваться или войти на трекер.
Показать сообщения за:  Поле сортировки  
Начать новую тему Ответить на тему  [ 1 сообщение ] 

Часовой пояс: UTC + 3 часа


Кто сейчас на конференции

Сейчас этот форум просматривают: нет зарегистрированных пользователей и гости: 10


Вы не можете начинать темы
Вы не можете отвечать на сообщения
Вы не можете редактировать свои сообщения
Вы не можете удалять свои сообщения
Вы не можете добавлять вложения

Найти:
Перейти:  
Переместиться наверх
 Главная |  Список форумов |   Time : 0.091s | 15 Queries | GZIP : Off |