Часовой пояс: UTC + 3 часа




Начать новую тему Ответить на тему  [ 1 сообщение ] 
Автор Сообщение
СообщениеДобавлено: 2020-11-20 10:52 
Не в сети
VIP-персона
VIP-персона
Аватара пользователя
Раздал: 2.94 ГБ
Скачал: 0 байт
Ратио: Seed.


Зарегистрирован: 2020-08-26 21:32
Сообщения: 350
Мадам Парфюмер / Les parfums


#777

Информация о фильме
Название: Мадам Парфюмер
Оригинальное название: Les parfums
Год выхода: 2019
Страна: Франция
Студия: Les Films Velvet, France 3 Cinéma, France Télévisions
Продолжительность: 01:41:05
Перевод: Дублированный | iTunes
Жанр: Комедия

Режиссер: Грегори Магне

В ролях:
Эммануэль Дево, Грегори Монтель, Зели Риксон, Серхи Лопес, Гюстав Керверн, Полин Мулен, Лиза Перрио, Саша Бурдо, Оливье Брош, Пол Жансон

О фильме:
Анна Вальберг — знаменитость в мире парфюмерии. Она живет как дива, ведет себя как эгоистка с сильным темпераментом. Гийом — её новый водитель и он единственный, кто не прогибается под её напором. Наверное, это причина, по которой она не расстаётся с ним.



Качество: WEB-DL 1080p
Видео: MPEG-4 AVC, 1920x806, 4566 Кbit/s, 24.000 fps
Аудио: 48 kHz, AC3, 5.1, 384 Kbps | iTunes | RUS |
Субтитры: Нет



General
Unique ID : 310357167491741192970807319480662738129 (0xE97C9DC16E09167133E5ACAF470FC4D1)
Complete name : D:Video111Les.parfums.2019.WEB-DL.1080p.seleZen.mkv
Format : Matroska
Format version : Version 4
File size : 3.50 GiB
Duration : 1 h 41 min
Overall bit rate : 4 951 kb/s
Movie name : Les parfums 2019 from seleZen
Encoded date : UTC 2020-11-19 11:00:18
Writing application : mkvmerge v40.0.0 ('Old Town Road + Pony') 64-bit
Writing library : libebml v1.3.9 + libmatroska v1.5.2

Video
ID : 1
Format : AVC
Format/Info : Advanced Video Codec
Format profile : High@L4
Format settings : CABAC / 5 Ref Frames
Format settings, CABAC : Yes
Format settings, Reference : 5 frames
Codec ID : V_MPEG4/ISO/AVC
Duration : 1 h 41 min
Bit rate : 4 566 kb/s
Width : 1 920 pixels
Height : 806 pixels
Display aspect ratio : 2.40:1
Frame rate mode : Constant
Frame rate : 24.000 FPS
Color space : YUV
Chroma subsampling : 4:2:0
Bit depth : 8 bits
Scan type : Progressive
Bits/(Pixel*Frame) : 0.123
Stream size : 3.22 GiB (92%)
Language : English
Default : Yes
Forced : No
Color range : Limited
Color primaries : BT.709
Transfer characteristics : BT.709
Matrix coefficients : BT.709

Audio
ID : 2
Format : AC-3
Format/Info : Audio Coding 3
Commercial name : Dolby Digital
Codec ID : A_AC3
Duration : 1 h 41 min
Bit rate mode : Constant
Bit rate : 384 kb/s
Channel(s) : 6 channels
Channel layout : L R C LFE Ls Rs
Sampling rate : 48.0 kHz
Frame rate : 31.250 FPS (1536 SPF)
Compression mode : Lossy
Stream size : 278 MiB (8%)
Title : iTunes
Language : Russian
Service kind : Complete Main
Default : Yes
Forced : Yes

Menu
00:00:00.000 : en:Глава 1
00:08:25.416 : en:Глава 2
00:16:51.791 : en:Глава 3
00:25:38.166 : en:Глава 4
00:34:19.416 : en:Глава 5
00:42:29.791 : en:Глава 6
00:50:48.541 : en:Глава 7
00:59:20.957 : en:Глава 8
01:07:39.207 : en:Глава 9
01:15:52.998 : en:Глава 10
01:24:27.123 : en:Глава 11
01:32:42.414 : en:Глава 12


Релиз:


У вас нет необходимых прав для просмотра вложений в этом сообщении.


Вернуться к началу
 Профиль  
Ответить с цитатой  
  • Торрент
Автор: Amigos Хэш: ---
Добавлен: 2020-11-20 10:52 Приватный: Нет (DHT включён)
Статус: Проверен
Размер: 3.5 ГБ (3 753 880 187 байт)
Изменил:
---
Скачали: 8698 (Раздающих: 0%)
Причина:
---
Здоровье: 100%
Сидеров: 3218 Личеров: 1028
Скорость раздачи: 0 байт/сек Скорость скачивания: 0 байт/сек
Последний сидер: 23 дня 7 часов 9 минут 20 секунд назад Последний личер: 23 дня 7 часов 9 минут 20 секунд назад
Для скачивания торрента необходимо зарегистрироваться или войти на трекер.
Показать сообщения за:  Поле сортировки  
Начать новую тему Ответить на тему  [ 1 сообщение ] 

Часовой пояс: UTC + 3 часа


Кто сейчас на конференции

Сейчас этот форум просматривают: нет зарегистрированных пользователей и гости: 6


Вы не можете начинать темы
Вы не можете отвечать на сообщения
Вы не можете редактировать свои сообщения
Вы не можете удалять свои сообщения
Вы не можете добавлять вложения

Найти:
Перейти:  
Переместиться наверх
 Главная |  Список форумов |   Time : 0.096s | 15 Queries | GZIP : Off |
tracker_cron