Часовой пояс: UTC + 3 часа




Начать новую тему Ответить на тему  [ 1 сообщение ] 
Автор Сообщение
СообщениеДобавлено: 2020-11-22 22:29 
Не в сети
Аватара пользователя
Раздал: 0 байт
Скачал: 0 байт
Ратио: Inf.


Зарегистрирован: 2012-12-16 02:02
Сообщения: 107
#777

Информация о фильме
Название: Ад по соседству / Девушка из первой квартиры
Оригинальное название: 1BR
Год выхода: 2019
Страна: США
Студия: 1BR Movie, Epicenter, Malevolent FIlms
Продолжительность: 01:30:12
Перевод: Дублированный | iTunes
Жанр: Ужасы, триллер, драма

Режиссер: Дэвид Мэрмор

В ролях:
Алан Блюменфилд, Андреа Гэбриел, Джиллз Мэттхи, Марк Креник, Наоми Гроссман, Николь Брайдон Блум, Сьюзэн Дэвис, Тейлор Николс, Селеста А. Салливан, Хейли Джиллз

О фильме:
Рассорившись с отцом после смерти матери, Сара пытается начать самостоятельную жизнь и находит идеальную, как ей кажется, квартирку в одном из небольших жилых комплексов Лос-Анджелеса. Её новые соседи — всё сплошь доброжелательные милые люди, которые устраивают совместные вечеринки и заботятся друг о друге. Но по ночам Сара не может нормально спать из-за странных звуков, и вскоре она узнает о своих соседях нечто очень неприятное.




Качество: BDRip 720p
Видео: MPEG-4 AVC, 1280x536, 7500 Kbit/s, 23.976 fps
Аудио #01: 48 kHz, AC3, 5.1, 384 Kbps | iTunes | RUS |
Аудио #02: 48 kHz, AC3, 5.1, 640 Kbps | Оригинал | ENG |
Субтитры: Русские (Forced), английские



General
Unique ID : 246230594268385045330160411853535329642 (0xB93E4997CD7AC45F3E54141F85C43D6A)
Complete name : D:Video1111BR.2019.BDRip.720p.seleZen.mkv
Format : Matroska
Format version : Version 4
File size : 5.36 GiB
Duration : 1 h 30 min
Overall bit rate : 8 514 kb/s
Movie name : 1BR 2019 from селезень
Encoded date : UTC 2020-11-10 07:35:01
Writing application : mkvmerge v40.0.0 ('Old Town Road + Pony') 64-bit
Writing library : libebml v1.3.9 + libmatroska v1.5.2

Video
ID : 1
Format : AVC
Format/Info : Advanced Video Codec
Format profile : High@L4.1
Format settings : CABAC / 12 Ref Frames
Format settings, CABAC : Yes
Format settings, Reference : 12 frames
Codec ID : V_MPEG4/ISO/AVC
Duration : 1 h 30 min
Bit rate : 7 500 kb/s
Width : 1 280 pixels
Height : 536 pixels
Display aspect ratio : 2.40:1
Frame rate mode : Constant
Frame rate : 23.976 (24000/1001) FPS
Color space : YUV
Chroma subsampling : 4:2:0
Bit depth : 8 bits
Scan type : Progressive
Bits/(Pixel*Frame) : 0.456
Stream size : 4.72 GiB (88%)
Writing library : x264 core 161 r3015+58M ~ LoRD
Encoding settings : cabac=1 / ref=12 / deblock=1:-3:-3 / analyse=0x3:0x133 / me=umh / subme=10 / psy=1 / fade_compensate=0.00 / psy_rd=1.00:0.00 / mixed_ref=1 / me_range=32 / chroma_me=1 / trellis=2 / 8x8dct=1 / cqm=0 / deadzone=21,11 / fast_pskip=0 / chroma_qp_offset=-2 / threads=12 / lookahead_threads=2 / sliced_threads=0 / nr=0 / decimate=0 / interlaced=0 / bluray_compat=0 / constrained_intra=0 / fgo=0 / bframes=9 / b_pyramid=2 / b_adapt=2 / b_bias=0 / direct=3 / weightb=1 / open_gop=0 / weightp=2 / keyint=250 / keyint_min=23 / scenecut=40 / intra_refresh=0 / rc_lookahead=60 / rc=2pass / mbtree=0 / bitrate=7500 / ratetol=1.0 / qcomp=0.66 / qpmin=0:0:0 / qpmax=69:69:69 / qpstep=4 / cplxblur=20.0 / qblur=0.5 / vbv_maxrate=50000 / vbv_bufsize=62500 / nal_hrd=none / filler=0 / ip_ratio=1.20 / pb_ratio=1.20 / aq=3:0.70 / aq-sensitivity=10.00 / aq-factor=1.00:1.00:1.00 / aq2=0 / aq3=0
Language : English
Default : Yes
Forced : No
Color range : Limited
Color primaries : BT.709
Transfer characteristics : BT.709
Matrix coefficients : BT.709

Audio #1
ID : 2
Format : AC-3
Format/Info : Audio Coding 3
Commercial name : Dolby Digital
Codec ID : A_AC3
Duration : 1 h 30 min
Bit rate mode : Constant
Bit rate : 384 kb/s
Channel(s) : 6 channels
Channel layout : L R C LFE Ls Rs
Sampling rate : 48.0 kHz
Frame rate : 31.250 FPS (1536 SPF)
Compression mode : Lossy
Stream size : 248 MiB (5%)
Title : iTunes
Language : Russian
Service kind : Complete Main
Default : Yes
Forced : Yes

Audio #2
ID : 3
Format : AC-3
Format/Info : Audio Coding 3
Commercial name : Dolby Digital
Codec ID : A_AC3
Duration : 1 h 30 min
Bit rate mode : Constant
Bit rate : 640 kb/s
Channel(s) : 6 channels
Channel layout : L R C LFE Ls Rs
Sampling rate : 48.0 kHz
Frame rate : 31.250 FPS (1536 SPF)
Compression mode : Lossy
Stream size : 413 MiB (8%)
Title : Original
Language : English
Service kind : Complete Main
Default : No
Forced : No

Text #1
ID : 4
Format : UTF-8
Codec ID : S_TEXT/UTF8
Codec ID/Info : UTF-8 Plain Text
Duration : 1 h 21 min
Bit rate : 1 b/s
Count of elements : 13
Stream size : 1.01 KiB (0%)
Title : Forced
Language : Russian
Default : Yes
Forced : Yes

Text #2
ID : 5
Format : UTF-8
Codec ID : S_TEXT/UTF8
Codec ID/Info : UTF-8 Plain Text
Duration : 1 h 27 min
Bit rate : 37 b/s
Count of elements : 966
Stream size : 24.3 KiB (0%)
Title : Full
Language : English
Default : No
Forced : No

Text #3
ID : 6
Format : UTF-8
Codec ID : S_TEXT/UTF8
Codec ID/Info : UTF-8 Plain Text
Duration : 1 h 27 min
Bit rate : 48 b/s
Count of elements : 1280
Stream size : 31.4 KiB (0%)
Title : SDH
Language : English
Default : No
Forced : No

Menu
00:00:00.000 : :1BR
00:04:40.738 : :Transition
00:07:42.962 : :Welcoming Party
00:10:24.040 : :First Night
00:13:20.549 : :Sleepless
00:16:57.933 : :It's My Life
00:22:37.022 : :Violation
00:27:25.143 : :Stress Position
00:34:08.212 : :Conditioning
00:37:32.375 : :Breaking Point
00:41:21.479 : :Almost Home
00:45:38.736 : :Foundations
00:50:02.791 : :Contributing
00:53:25.076 : :Responsibility
00:59:17.595 : :Part of the Community
01:04:19.939 : :He's Gone
01:09:16.110 : :This Is Our Life
01:11:32.287 : :Vacancy
01:14:18.829 : :You Can't Leave
01:19:24.968 : :Breakout
01:24:45.080 : :End Credits


Релиз:



У вас нет необходимых прав для просмотра вложений в этом сообщении.


Вернуться к началу
 Профиль  
Ответить с цитатой  
  • Торрент
Автор: Sovetnik Хэш: ---
Добавлен: 2020-11-22 22:29 Приватный: Нет (DHT включён)
Статус: Проверен
Размер: 5.36 ГБ (5 759 938 405 байт)
Изменил:
---
Скачали: 0 (Раздающих: 0%)
Причина:
---
Здоровье: 0%
Сидеров: 0 Личеров: 0
Скорость раздачи: 0 байт/сек Скорость скачивания: 0 байт/сек
Последний сидер: Нет Последний личер: Нет
Для скачивания торрента необходимо зарегистрироваться или войти на трекер.
Показать сообщения за:  Поле сортировки  
Начать новую тему Ответить на тему  [ 1 сообщение ] 

Часовой пояс: UTC + 3 часа


Кто сейчас на конференции

Сейчас этот форум просматривают: нет зарегистрированных пользователей и гости: 8


Вы не можете начинать темы
Вы не можете отвечать на сообщения
Вы не можете редактировать свои сообщения
Вы не можете удалять свои сообщения
Вы не можете добавлять вложения

Найти:
Перейти:  
Переместиться наверх
 Главная |  Список форумов |   Time : 0.092s | 15 Queries | GZIP : Off |
tracker_cron