Часовой пояс: UTC + 3 часа




Начать новую тему Ответить на тему  [ 1 сообщение ] 
Автор Сообщение
СообщениеДобавлено: 2020-11-22 22:29 
Не в сети
Аватара пользователя
Раздал: 0 байт
Скачал: 0 байт
Ратио: Inf.


Зарегистрирован: 2012-12-16 02:02
Сообщения: 107
Красный скорпион / Red Scorpion
«He's a human killing machine. Taught to stalk. Trained to kill.
Programmed to destroy. He's played by their rules... Until now»


#777

Информация о фильме
    Название: Красный скорпион
    Оригинальное: Red Scorpion
    Год выхода: 1988
    Выпущено: Abramoff Production, Scorpion Film Production
    Страна: ЮАР, США, Намибия
    Продолжительность: 01:45:13
    Перевод: Профессиональный многоголосый, авторский
    Жанр: Боевик, приключения

    Режиссер: Джозеф Зито

    В ролях:
    Дольф Лундгрен, М. Эммет Уолш, Аль Уайт, Т.П. МакКенна, Кармен Ардженциано, Алекс Колон, Брайон Джеймс, Рубен Нтоди, Вузи Дибуквана, Джеймс Мтоба, Эрнест Ндлову, Тапело Мофокенг, Никки Ребелло, Драммонд Маре, Туллио Монета, Юрген Хеллберг, Грэхэм Кларк, Ирен Стефано, Патрик Шай, Питер Се Пума, Энтони Фриджон, Грег Лэттер


Сюжет фильма
    Николай Раченко — гордость элитного отряда спецназа, идеальная машина смерти на службе у высшего руководства СССР. В обстановке абсолютной секретности бесстрашный боец получает рискованное задание: устранить в далекой африканской стране лидера повстанцев, бросившего вызов коммунистам. Николай не привык обсуждать приказы, в диких пустошах, среди первобытных племен и кровожадных наемников есть где развернуться его широкой душе и пудовым кулакам, но постепенно он понимает, что является слепым орудием сил зла. Встав жертвой предательства и двойной игры, Николай переходит на сторону своих противников, верша правосудие по своему усмотрению, и вскоре его бывшие командиры понимают, что у них появился смертельно опасный враг.



Файл
    Кодек: x264
    Формат: MKV
    Качество: BDRip 720p (Источник: Skynet Blu-ray Edition от Bluebird)
    Видео: MPEG-4 AVC (16:9) 1280x720 pix, 23.976 fps, 9346 kbps
    Аудио I: Dolby Digital (5.1) 16 bit, 48 kHz, 448 kbps (MVO "студия Инис")
    Аудио II: Dolby Digital (2.0) 16 bit, 48 kHz, 192 kbps (AVO "Андрей Гаврилов")
    Аудио III: Dolby Digital (2.0) 16 bit, 48 kHz, 192 kbps (AVO "Василий Горчаков")
    Аудио IV: Dolby Digital (2.0) 16 bit, 48 kHz, 192 kbps (AVO "Витя-говорун")
    Аудио V: Dolby Digital (2.0) 16 bit, 48 kHz, 192 kbps (AVO "Виктор Махонько")
    Аудио VI: Dolby Digital (2.0) 16 bit, 48 kHz, 256 kbps (English "Original")
    Субтитры: SRT Русские, Английские
    Меню: Сохранены оригинальные чаптеры Blu-ray




x264 [info]: frame I:1133 Avg QP:17.79 size:148824
x264 [info]: frame P:27248 Avg QP:20.29 size: 80534
x264 [info]: frame B:122997 Avg QP:22.33 size: 40733
General
Unique ID : 203362656303217132130677571202014504926 (0x98FE39123B69FB5D85989C48F263E7DE)
Format : Matroska
Format version : Version 2
File size : 7.95 GiB
Duration : 1h 45mn
Overall bit rate : 10.8 Mbps
Movie name : Красный скорпион (1988) BDRip (720p)
Encoded date : UTC 2014-10-17 21:54:14
Writing application : mkvmerge v5.8.0 ('No Sleep / Pillow') built on Sep 2 2012 15:37:04
Writing library : libebml v1.2.3 + libmatroska v1.3.0
Video
ID : 1
Format : AVC
Format/Info : Advanced Video Codec
Format profile : High@L4.1
Format settings, CABAC : Yes
Format settings, ReFrames : 8 frames
Codec ID : V_MPEG4/ISO/AVC
Duration : 1h 45mn
Bit rate : 9 346 Kbps
Width : 1 280 pixels
Height : 720 pixels
Display aspect ratio : 16:9
Frame rate mode : Constant
Frame rate : 23.976 fps
Color space : YUV
Chroma subsampling : 4:2:0
Bit depth : 8 bits
Scan type : Progressive
Bits/(Pixel*Frame) : 0.423
Stream size : 6.71 GiB (84%)
Title : Release by Alex260680
Writing library : x264 core 142 r2479 dd79a61
Encoding settings : cabac=1 / ref=8 / deblock=1:-3:-3 / analyse=0x3:0x133 / me=umh / subme=11 / psy=1 / psy_rd=1.00:0.00 / mixed_ref=1 / me_range=32 / chroma_me=1 / trellis=2 / 8x8dct=1 / cqm=0 / deadzone=21,11 / fast_pskip=0 / chroma_qp_offset=-2 / threads=6 / lookahead_threads=1 / sliced_threads=0 / nr=0 / decimate=0 / interlaced=0 / bluray_compat=0 / constrained_intra=0 / bframes=8 / b_pyramid=2 / b_adapt=2 / b_bias=0 / direct=3 / weightb=1 / open_gop=0 / weightp=2 / keyint=240 / keyint_min=23 / scenecut=40 / intra_refresh=0 / rc=2pass / mbtree=0 / bitrate=9346 / ratetol=1.0 / qcomp=0.60 / qpmin=0 / qpmax=69 / qpstep=4 / cplxblur=20.0 / qblur=0.5 / ip_ratio=1.40 / pb_ratio=1.30 / aq=1:0.80
Language : English
Default : Yes
Forced : No
Audio #1
ID : 2
Format : AC-3
Format/Info : Audio Coding 3
Mode extension : CM (complete main)
Format settings, Endianness : Big
Codec ID : A_AC3
Duration : 1h 45mn
Bit rate mode : Constant
Bit rate : 448 Kbps
Channel(s) : 6 channels
Channel positions : Front: L C R, Side: L R, LFE
Sampling rate : 48.0 KHz
Bit depth : 16 bits
Compression mode : Lossy
Delay relative to video : 18ms
Stream size : 337 MiB (4%)
Title : MVO (студия Инис)
Language : Russian
Default : Yes
Forced : No
Audio #2
ID : 3
Format : AC-3
Format/Info : Audio Coding 3
Mode extension : CM (complete main)
Format settings, Endianness : Big
Codec ID : A_AC3
Duration : 1h 45mn
Bit rate mode : Constant
Bit rate : 192 Kbps
Channel(s) : 2 channels
Channel positions : Front: L R
Sampling rate : 48.0 KHz
Bit depth : 16 bits
Compression mode : Lossy
Delay relative to video : 3ms
Stream size : 145 MiB (2%)
Title : AVO (А. Гаврилов)
Language : Russian
Default : No
Forced : No
Audio #3
ID : 4
Format : AC-3
Format/Info : Audio Coding 3
Mode extension : CM (complete main)
Format settings, Endianness : Big
Codec ID : A_AC3
Duration : 1h 45mn
Bit rate mode : Constant
Bit rate : 192 Kbps
Channel(s) : 2 channels
Channel positions : Front: L R
Sampling rate : 48.0 KHz
Bit depth : 16 bits
Compression mode : Lossy
Delay relative to video : 20ms
Stream size : 145 MiB (2%)
Title : AVO (В. Горчаков)
Language : Russian
Default : No
Forced : No
Audio #4
ID : 5
Format : AC-3
Format/Info : Audio Coding 3
Mode extension : CM (complete main)
Format settings, Endianness : Big
Codec ID : A_AC3
Duration : 1h 45mn
Bit rate mode : Constant
Bit rate : 192 Kbps
Channel(s) : 2 channels
Channel positions : Front: L R
Sampling rate : 48.0 KHz
Bit depth : 16 bits
Compression mode : Lossy
Delay relative to video : 20ms
Stream size : 145 MiB (2%)
Title : AVO (Витя-говорун)
Language : Russian
Default : No
Forced : No
Audio #5
ID : 6
Format : AC-3
Format/Info : Audio Coding 3
Mode extension : CM (complete main)
Format settings, Endianness : Big
Codec ID : A_AC3
Duration : 1h 45mn
Bit rate mode : Constant
Bit rate : 192 Kbps
Channel(s) : 2 channels
Channel positions : Front: L R
Sampling rate : 48.0 KHz
Bit depth : 16 bits
Compression mode : Lossy
Delay relative to video : 20ms
Stream size : 145 MiB (2%)
Title : AVO (В. Махонько)
Language : Russian
Default : No
Forced : No
Audio #6
ID : 7
Format : AC-3
Format/Info : Audio Coding 3
Mode extension : CM (complete main)
Format settings, Endianness : Big
Codec ID : A_AC3
Duration : 1h 45mn
Bit rate mode : Constant
Bit rate : 256 Kbps
Channel(s) : 2 channels
Channel positions : Front: L R
Sampling rate : 48.0 KHz
Bit depth : 16 bits
Compression mode : Lossy
Delay relative to video : 20ms
Stream size : 193 MiB (2%)
Title : Original
Language : English
Default : No
Forced : No
Text #1
ID : 8
Format : UTF-8
Codec ID : S_TEXT/UTF8
Codec ID/Info : UTF-8 Plain Text
Language : Russian
Default : No
Forced : No
Text #2
ID : 9
Format : UTF-8
Codec ID : S_TEXT/UTF8
Codec ID/Info : UTF-8 Plain Text
Language : English
Default : No
Forced : No
Menu
00:00:00.000 : en:Chapter 01
00:08:12.575 : en:Chapter 02
00:19:12.526 : en:Chapter 03
00:30:30.162 : en:Chapter 04
00:42:35.636 : en:Chapter 05
00:50:41.121 : en:Chapter 06
00:59:17.763 : en:Chapter 07
01:08:37.822 : en:Chapter 08
01:18:53.604 : en:Chapter 09
01:27:28.034 : en:Chapter 10
01:34:51.144 : en:Chapter 11
01:42:42.573 : en:Chapter 12



У вас нет необходимых прав для просмотра вложений в этом сообщении.


Вернуться к началу
 Профиль  
Ответить с цитатой  
  • Торрент
Автор: Sovetnik Хэш: ---
Добавлен: 2020-11-22 22:29 Приватный: Нет (DHT включён)
Статус: Проверен
Размер: 7.95 ГБ (8 537 274 631 байт)
Изменил:
---
Скачали: 0 (Раздающих: 0%)
Причина:
---
Здоровье: 0%
Сидеров: 0 Личеров: 0
Скорость раздачи: 0 байт/сек Скорость скачивания: 0 байт/сек
Последний сидер: Нет Последний личер: Нет
Для скачивания торрента необходимо зарегистрироваться или войти на трекер.
Показать сообщения за:  Поле сортировки  
Начать новую тему Ответить на тему  [ 1 сообщение ] 

Часовой пояс: UTC + 3 часа


Кто сейчас на конференции

Сейчас этот форум просматривают: нет зарегистрированных пользователей и гости: 11


Вы не можете начинать темы
Вы не можете отвечать на сообщения
Вы не можете редактировать свои сообщения
Вы не можете удалять свои сообщения
Вы не можете добавлять вложения

Найти:
Перейти:  
Переместиться наверх
 Главная |  Список форумов |   Time : 0.092s | 17 Queries | GZIP : Off |
tracker_cron