Часовой пояс: UTC + 3 часа




Начать новую тему Ответить на тему  [ 1 сообщение ] 
Автор Сообщение
СообщениеДобавлено: 2020-11-26 16:05 
Не в сети
Аватара пользователя
Раздал: 0 байт
Скачал: 0 байт
Ратио: Inf.


Зарегистрирован: 2012-12-16 02:02
Сообщения: 107
3615 код Деда Мороза / 3615 code Père Noël / Dial Code Santa Claus / Game Over / Deadly Games


#777

Год выпуска: 1989
Страна: Франция
Продолжительность: 01:31:23
Перевод 1: авторский (одноголосый закадровый) Вартан Дохалов
Перевод 2: любительский (двухголосый закадровый) den904 & DeadSno по переводу DeepestLore
Cубтитры: русские, английские
Оригинальная аудиодорожка: французский
Жанр: триллер, ужасы

Режиссер: Рене Манзор / René Manzor

В ролях:
Брижит Фоссе, Луи Дюкрё, Патрик Флёрем, Ален Лаланн, Франсуа-Эрик Жандрон, Стефани Легрос, Франк Капиллери, Николь Раукер, Гедеон, Чарльз де Фераль, Мэрион Бьюро, Рене Манзор и др.

Описание:
Очень смышлёный и находчивый мальчик Томас остается один со своим дедом в канун Рождества, когда психопат, переодетый в Санта Клауса, проникает к ним в дом. Томас будет делать всё, чтобы защитить себя и дедулю.

сэмпл

Тип релиза: BDRemux 1080p
Контейнер: MKV
Видео: MPEG-4 AVC Video / 34806 kbps / 1080p / 23.976 fps / 16:9 / High Profile 4.1
Аудио 1: Russian / AC-3 / 2.0 / 48 kHz / 192 kbps / 16-bit / Вартан Дохалов
Аудио 2: Russian / AC-3 / 2.0 / 48 kHz / 192 kbps / 16-bit / den904 & DeadSno
Аудио 3: French / DTS-HD Master Audio / 2.0 / 48 kHz / 2141 kbps / 24-bit (DTS Core: 2.0 / 48 kHz / 1509 kbps / 24-bit)
Формат субтитров: softsub (SRT)

General
Unique ID : 72208375181879021342302371419857254361 (0x3652D3C35E4587AF31151830C88A77D9)
Complete name : 3615.code.Pere.Noel.1989.Vinegar.Syndrome.BDRemux.1080p.mkv
Format : Matroska
Format version : Version 4 / Version 2
File size : 23.8 GiB
Duration : 1 h 31 min
Overall bit rate mode : Variable
Overall bit rate : 37.3 Mb/s
Encoded date : UTC 2020-11-12 13:42:10
Writing application : mkvmerge v51.0.0 ('I Wish') 32-bit
Writing library : libebml v1.4.0 + libmatroska v1.6.2
Video
ID : 1
Format : AVC
Format/Info : Advanced Video Codec
Format profile : High@L4.1
Format settings, CABAC : Yes
Format settings, RefFrames : 3 frames
Codec ID : V_MPEG4/ISO/AVC
Duration : 1 h 31 min
Bit rate mode : Variable
Bit rate : 35.0 Mb/s
Maximum bit rate : 40.0 Mb/s
Width : 1 920 pixels
Height : 1 080 pixels
Display aspect ratio : 16:9
Frame rate mode : Constant
Frame rate : 23.976 (24000/1001) FPS
Standard : NTSC
Color space : YUV
Chroma subsampling : 4:2:0
Bit depth : 8 bits
Scan type : Progressive
Bits/(Pixel*Frame) : 0.704
Stream size : 22.2 GiB (93%)
Writing library : x264pro - Adobe CS Exporter Plug-in
Encoding settings : cabac=1 / ref=4 / deblock=1:-1:-1 / analyse=0x3:0x133 / me=umh / subme=10 / psy=1 / psy_rd=1.00:0.15 / mixed_ref=1 / me_range=24 / chroma_me=1 / trellis=2 / 8x8dct=1 / cqm=0 / deadzone=21,11 / fast_pskip=1 / chroma_qp_offset=-3 / threads=12 / lookahead_threads=2 / sliced_threads=0 / slices=4 / nr=0 / decimate=1 / interlaced=0 / bluray_compat=1 / constrained_intra=0 / bframes=3 / b_pyramid=1 / b_adapt=2 / b_bias=0 / direct=3 / weightb=1 / open_gop=0 / weightp=1 / keyint=24 / keyint_min=1 / scenecut=40 / intra_refresh=0 / rc_lookahead=24 / rc=2pass / mbtree=1 / bitrate=35000 / ratetol=1.0 / qcomp=0.60 / qpmin=0 / qpmax=69 / qpstep=4 / cplxblur=20.0 / qblur=0.5 / vbv_maxrate=40000 / vbv_bufsize=30000 / nal_hrd=vbr / ip_ratio=1.40 / aq=1:1.00
Default : Yes
Forced : No
Color range : Limited
Color primaries : BT.709
Transfer characteristics : BT.709
Matrix coefficients : BT.709
Audio #1
ID : 2
Format : AC-3
Format/Info : Audio Coding 3
Format settings, Endianness : Big
Codec ID : A_AC3
Duration : 1 h 31 min
Bit rate mode : Constant
Bit rate : 192 kb/s
Channel(s) : 2 channels
Channel positions : Front: L R
Sampling rate : 48.0 kHz
Frame rate : 31.250 FPS (1536 SPF)
Bit depth : 16 bits
Compression mode : Lossy
Stream size : 126 MiB (1%)
Title : Вартан Дохалов
Language : Russian
Service kind : Complete Main
Default : Yes
Forced : No
Audio #2
ID : 3
Format : AC-3
Format/Info : Audio Coding 3
Format settings, Endianness : Big
Codec ID : A_AC3
Duration : 1 h 31 min
Bit rate mode : Constant
Bit rate : 192 kb/s
Channel(s) : 2 channels
Channel positions : Front: L R
Sampling rate : 48.0 kHz
Frame rate : 31.250 FPS (1536 SPF)
Bit depth : 16 bits
Compression mode : Lossy
Stream size : 126 MiB (1%)
Title : den904 & DeadSno
Language : Russian
Service kind : Complete Main
Default : No
Forced : No
Audio #3
ID : 4
Format : DTS
Format/Info : Digital Theater Systems
Format profile : MA / Core
Mode : 16
Format settings, Endianness : Big
Codec ID : A_DTS
Duration : 1 h 31 min
Bit rate mode : Variable / Constant
Bit rate : 2 141 kb/s / 1 509 kb/s
Channel(s) : 2 channels
Channel positions : Front: L R
Sampling rate : 48.0 kHz
Frame rate : 93.750 FPS (512 SPF)
Bit depth : 24 bits
Compression mode : Lossless / Lossy
Stream size : 1.37 GiB (6%)
Language : French
Default : No
Forced : No
Text #1
ID : 5
Format : UTF-8
Codec ID : S_TEXT/UTF8
Codec ID/Info : UTF-8 Plain Text
Duration : 1 h 31 min
Bit rate : 36 b/s
Count of elements : 546
Stream size : 24.3 KiB (0%)
Language : Russian
Default : No
Forced : No
Text #2
ID : 6
Format : UTF-8
Codec ID : S_TEXT/UTF8
Codec ID/Info : UTF-8 Plain Text
Duration : 1 h 28 min
Bit rate : 26 b/s
Count of elements : 615
Stream size : 17.4 KiB (0%)
Language : English
Default : No
Forced : No
Menu
00:00:00.000 : :Chapter 01
00:18:59.638 : :Chapter 02
00:37:44.262 : :Chapter 03
00:57:47.964 : :Chapter 04
01:16:56.612 : :Chapter 05
Camera Obscura | Vinegar Syndrome




У вас нет необходимых прав для просмотра вложений в этом сообщении.


Вернуться к началу
 Профиль  
Ответить с цитатой  
  • Торрент
Автор: Sovetnik Хэш: ---
Добавлен: 2020-11-26 16:05 Приватный: Нет (DHT включён)
Статус: Проверен
Размер: 23.83 ГБ (25 592 164 752 байт)
Изменил:
---
Скачали: 0 (Раздающих: 0%)
Причина:
---
Здоровье: 0%
Сидеров: 0 Личеров: 0
Скорость раздачи: 0 байт/сек Скорость скачивания: 0 байт/сек
Последний сидер: Нет Последний личер: Нет
Для скачивания торрента необходимо зарегистрироваться или войти на трекер.
Показать сообщения за:  Поле сортировки  
Начать новую тему Ответить на тему  [ 1 сообщение ] 

Часовой пояс: UTC + 3 часа


Кто сейчас на конференции

Сейчас этот форум просматривают: нет зарегистрированных пользователей и гости: 9


Вы не можете начинать темы
Вы не можете отвечать на сообщения
Вы не можете редактировать свои сообщения
Вы не можете удалять свои сообщения
Вы не можете добавлять вложения

Найти:
Перейти:  
Переместиться наверх
 Главная |  Список форумов |   Time : 0.092s | 15 Queries | GZIP : Off |
tracker_cron