Часовой пояс: UTC + 3 часа




Начать новую тему Ответить на тему  [ 1 сообщение ] 
Автор Сообщение
СообщениеДобавлено: 2020-11-26 16:05 
Не в сети
Аватара пользователя
Раздал: 0 байт
Скачал: 0 байт
Ратио: Inf.


Зарегистрирован: 2012-12-16 02:02
Сообщения: 107
2067: Петля времени / 2067


#777

Год выпуска: 2020
Страна: Австралия
Продолжительность: 01:54:18
Перевод: Профессиональный (дублированный) | (iTunes)
Cубтитры: Английские
Оригинальная аудиодорожка: Английский
Жанр: Фантастика, драма

Режиссёр: Сет Ларни / Seth Larney

В ролях:
Коди Смит-Макфи, Райан Квантен, Санаа Шейк, Дебора Мэйлман, Аарон Гленнэйн, Финн Литтл, Энди МакФи, Чекк Мусолино, Мэтт Тестро, Дэмиэн Уолш-Хоулинг

Описание:
2067 год. Люди окончательно загубили экологию и теперь задыхаются - исчезли животные и растения, планета окутана плотными слоями смога. Из-за искусственного кислорода у некоторых развивается неподдающаяся лечению болезнь. Простой техник Итайн Уайт готов на всё, лишь бы помочь больной жене. Неожиданно корпорация, где когда-то работал его отец-физик, получает сообщение из будущего: «Отправьте Итана Уайта». Парень становится последней надеждой человечества.



Тип релиза: BDRemux 1080p
Контейнер: MKV
Видео: MPEG-4 AVC Video 27980 kbps 1080p / 23,976 fps / 16:9 / High Profile 4.1
Аудио 1: Русский | AC-3, 6 ch, 384 Kbps, 48.0 kHz
Аудио 2: Английский | DTS-HD MA, 6 ch, 3394 Kbps, 48.0 kHz, 24-bit (DTS Core: 5.1 / 48 kHz / 1509 kbps / 24-bit)
Формат субтитров: softsub (SRT)
Код:
Код:
General
Unique ID                                : 284685127097742637880362493576654414560 (0xD62C5C710B674AFD70FEEB736FB8E2E0)
Complete name                            : /Volumes/Promise Pegasus/2067.BDRemux.1080p.mkv
Format                                   : Matroska
Format version                           : Version 4
File size                                : 25.2 GiB
Duration                                 : 1 h 54 min
Overall bit rate mode                    : Variable
Overall bit rate                         : 31.5 Mb/s
Movie name                               : 2067 BDRemux 1080p
Encoded date                             : UTC 2020-11-15 15:00:44
Writing application                      : mkvmerge v51.0.0 ('I Wish') 64-bit
Writing library                          : libebml v1.4.0 + libmatroska v1.6.2
Video
ID                                       : 1
Format                                   : AVC
Format/Info                              : Advanced Video Codec
Format profile                           : High@L4.1
Format settings                          : CABAC / 4 Ref Frames
Format settings, CABAC                   : Yes
Format settings, Reference frames        : 4 frames
Codec ID                                 : V_MPEG4/ISO/AVC
Duration                                 : 1 h 54 min
Bit rate mode                            : Variable
Bit rate                                 : 27.7 Mb/s
Maximum bit rate                         : 36.0 Mb/s
Width                                    : 1 920 pixels
Height                                   : 1 080 pixels
Display aspect ratio                     : 16:9
Frame rate mode                          : Constant
Frame rate                               : 23.976 (24000/1001) FPS
Color space                              : YUV
Chroma subsampling                       : 4:2:0
Bit depth                                : 8 bits
Scan type                                : Progressive
Bits/(Pixel*Frame)                       : 0.558
Stream size                              : 22.1 GiB (88%)
Language                                 : English
Default                                  : Yes
Forced                                   : No
Audio #1
ID                                       : 2
Format                                   : AC-3
Format/Info                              : Audio Coding 3
Commercial name                          : Dolby Digital
Codec ID                                 : A_AC3
Duration                                 : 1 h 54 min
Bit rate mode                            : Constant
Bit rate                                 : 384 kb/s
Channel(s)                               : 6 channels
Channel layout                           : L R C LFE Ls Rs
Sampling rate                            : 48.0 kHz
Frame rate                               : 31.250 FPS (1536 SPF)
Compression mode                         : Lossy
Stream size                              : 314 MiB (1%)
Title                                    : Russian Dub iTunes
Language                                 : Russian
Service kind                             : Complete Main
Default                                  : Yes
Forced                                   : No
Audio #2
ID                                       : 3
Format                                   : DTS XLL
Format/Info                              : Digital Theater Systems
Commercial name                          : DTS-HD Master Audio
Codec ID                                 : A_DTS
Duration                                 : 1 h 54 min
Bit rate mode                            : Variable
Bit rate                                 : 3 394 kb/s
Channel(s)                               : 6 channels
Channel layout                           : C L R Ls Rs LFE
Sampling rate                            : 48.0 kHz
Frame rate                               : 93.750 FPS (512 SPF)
Bit depth                                : 24 bits
Compression mode                         : Lossless
Stream size                              : 2.71 GiB (11%)
Title                                    : English Original
Language                                 : English
Default                                  : No
Forced                                   : No
Text
ID                                       : 4
Format                                   : UTF-8
Codec ID                                 : S_TEXT/UTF8
Codec ID/Info                            : UTF-8 Plain Text
Duration                                 : 1 h 50 min
Bit rate                                 : 45 b/s
Count of elements                        : 1352
Stream size                              : 36.8 KiB (0%)
Title                                    : English SDH
Language                                 : English
Default                                  : No
Forced                                   : No
Menu
00:00:00.000                             : en:Chapter 01
00:18:22.435                             : en:Chapter 02
00:36:01.534                             : en:Chapter 03
01:01:42.991                             : en:Chapter 04
01:15:35.406                             : en:Chapter 05
01:24:37.239                             : en:Chapter 06
01:36:34.372                             : en:Chapter 07
01:47:25.939                             : en:Chapter 08



У вас нет необходимых прав для просмотра вложений в этом сообщении.


Вернуться к началу
 Профиль  
Ответить с цитатой  
  • Торрент
Автор: Sovetnik Хэш: ---
Добавлен: 2020-11-26 16:05 Приватный: Нет (DHT включён)
Статус: Проверен
Размер: 25.16 ГБ (27 012 244 094 байт)
Изменил:
---
Скачали: 0 (Раздающих: 0%)
Причина:
---
Здоровье: 0%
Сидеров: 0 Личеров: 0
Скорость раздачи: 0 байт/сек Скорость скачивания: 0 байт/сек
Последний сидер: Нет Последний личер: Нет
Для скачивания торрента необходимо зарегистрироваться или войти на трекер.
Показать сообщения за:  Поле сортировки  
Начать новую тему Ответить на тему  [ 1 сообщение ] 

Часовой пояс: UTC + 3 часа


Кто сейчас на конференции

Сейчас этот форум просматривают: нет зарегистрированных пользователей и гости: 7


Вы не можете начинать темы
Вы не можете отвечать на сообщения
Вы не можете редактировать свои сообщения
Вы не можете удалять свои сообщения
Вы не можете добавлять вложения

Найти:
Перейти:  
cron
Переместиться наверх
 Главная |  Список форумов |   Time : 0.118s | 19 Queries | GZIP : Off |
tracker_cron