Часовой пояс: UTC + 3 часа




Начать новую тему Ответить на тему  [ 1 сообщение ] 
Автор Сообщение
СообщениеДобавлено: 2020-11-26 16:05 
Не в сети
Аватара пользователя
Раздал: 0 байт
Скачал: 0 байт
Ратио: Inf.


Зарегистрирован: 2012-12-16 02:02
Сообщения: 107
Джуди / Judy
«По ту сторону радуги: история легенды Золотого века Голливуда Джуди Гарленд»


#777

Год выпуска: 2019
Страна: Великобритания
Продолжительность: 01:58:18
Перевод: Профессиональный (дублированный) | (iTunes)
Cубтитры: Английские
Оригинальная аудиодорожка: Английский
Жанр: Драма, мелодрама, биография

Режиссёр: Руперт Гулд / Rupert Goold

В ролях:
Рене Зеллвегер, Финн Уиттрок, Джесси Бакли, Руфус Сьюэлл, Майкл Гэмбон, Ричард Кордери, Ройс Пирресон, Дарси Шоу, Энди Найман, Дэниэл Серкера

Описание:
Зимой 1968 года Джуди Гарленд приезжает в Лондон, чтобы дать серию концертов в клубе «The Talk of the Town». После славы «Волшебника страны Оз» прошло 30 лет, но если и ослаб голос Джуди, характер и воля к жизни только окрепли. Хотя за плечами легендарной артистки уже четыре развода, она ещё не потеряла веру в романтику и готова встречаться с молодым мужчиной.



Тип релиза: BDRemux 1080p
Контейнер: MKV
Видео: MPEG-4 AVC Video 20000 kbps 1080p / 23,976 fps / 16:9 / High Profile 4.1
Аудио 1: Русский | AC-3, 6 ch, 384 Kbps, 48.0 KHz
Аудио 2: Английский | DTS-HD MA, 6 ch, 1836 Kbps, 48.0 KHz, 16-bit (DTS Core: 5.1 / 48 kHz / 1509 kbps / 16-bit)

Код:
Код:
General
Unique ID                                : 199852826913290501731445194292383107577 (0x965A411F325DDA32F9F934079932C9F9)
Complete name                            : /Volumes/Promise 2/Judy.BDRemux.1080p.pk.mkv
Format                                   : Matroska
Format version                           : Version 4
File size                                : 18.4 GiB
Duration                                 : 1h 58mn
Overall bit rate mode                    : Variable
Overall bit rate                         : 22.2 Mbps
Movie name                               : Judy BDRemux 1080p pk
Encoded date                             : UTC 2020-01-02 00:31:46
Writing application                      : mkvmerge v41.0.0 ('Smarra') 64-bit
Writing library                          : libebml v1.3.9 + libmatroska v1.5.2
Video
ID                                       : 1
Format                                   : AVC
Format/Info                              : Advanced Video Codec
Format profile                           : High@L4.1
Format settings                          : CABAC / 4 Ref Frames
Format settings, CABAC                   : Yes
Format settings, ReFrames                : 4 frames
Codec ID                                 : V_MPEG4/ISO/AVC
Duration                                 : 1h 58mn
Bit rate mode                            : Variable
Bit rate                                 : 20.0 Mbps
Maximum bit rate                         : 35.0 Mbps
Width                                    : 1 920 pixels
Height                                   : 1 080 pixels
Display aspect ratio                     : 16:9
Frame rate mode                          : Constant
Frame rate                               : 23.976 (24000/1001) fps
Standard                                 : NTSC
Color space                              : YUV
Chroma subsampling                       : 4:2:0
Bit depth                                : 8 bits
Scan type                                : Progressive
Bits/(Pixel*Frame)                       : 0.402
Stream size                              : 16.5 GiB (90%)
Language                                 : English
Default                                  : Yes
Forced                                   : No
Color range                              : Limited
Color primaries                          : BT.709
Transfer characteristics                 : BT.709
Matrix coefficients                      : BT.709
Audio #1
ID                                       : 2
Format                                   : AC-3
Format/Info                              : Audio Coding 3
Commercial name                          : Dolby Digital
Codec ID                                 : A_AC3
Duration                                 : 1h 58mn
Bit rate mode                            : Constant
Bit rate                                 : 384 Kbps
Channel(s)                               : 6 channels
Channel layout                           : L R C LFE Ls Rs
Sampling rate                            : 48.0 KHz
Frame rate                               : 31.250 fps (1536 SPF)
Compression mode                         : Lossy
Stream size                              : 325 MiB (2%)
Title                                    : Russian Dub iTunes
Language                                 : Russian
Service kind                             : Complete Main
Default                                  : Yes
Forced                                   : No
Audio #2
ID                                       : 3
Format                                   : DTS XLL
Format/Info                              : Digital Theater Systems
Commercial name                          : DTS-HD Master Audio
Codec ID                                 : A_DTS
Duration                                 : 1h 58mn
Bit rate mode                            : Variable
Bit rate                                 : 1 836 Kbps
Channel(s)                               : 6 channels
Channel layout                           : C L R Ls Rs LFE
Sampling rate                            : 48.0 KHz
Frame rate                               : 93.750 fps (512 SPF)
Bit depth                                : 16 bits
Compression mode                         : Lossless
Stream size                              : 1.52 GiB (8%)
Title                                    : English Original
Language                                 : English
Default                                  : No
Forced                                   : No
Text
ID                                       : 4
Format                                   : UTF-8
Codec ID                                 : S_TEXT/UTF8
Codec ID/Info                            : UTF-8 Plain Text
Duration                                 : 1h 49mn
Bit rate                                 : 58 bps
Count of elements                        : 1655
Stream size                              : 47.0 KiB (0%)
Title                                    : English full
Language                                 : English
Default                                  : No
Forced                                   : No
Menu
00:00:00.000                             : en:Chapter 01
00:05:35.335                             : en:Chapter 02
00:13:02.615                             : en:Chapter 03
00:21:21.905                             : en:Chapter 04
00:28:03.682                             : en:Chapter 05
00:35:43.141                             : en:Chapter 06
00:45:33.731                             : en:Chapter 07
00:50:26.023                             : en:Chapter 08
00:57:15.140                             : en:Chapter 09
01:04:23.484                             : en:Chapter 10
01:12:23.255                             : en:Chapter 11
01:20:22.818                             : en:Chapter 12
01:30:48.443                             : en:Chapter 13
01:35:09.328                             : en:Chapter 14
01:40:34.028                             : en:Chapter 15
01:51:18.672                             : en:Chapter 16



У вас нет необходимых прав для просмотра вложений в этом сообщении.


Вернуться к началу
 Профиль  
Ответить с цитатой  
  • Торрент
Автор: Sovetnik Хэш: ---
Добавлен: 2020-11-26 16:05 Приватный: Нет (DHT включён)
Статус: Проверен
Размер: 18.36 ГБ (19 717 426 246 байт)
Изменил:
---
Скачали: 0 (Раздающих: 0%)
Причина:
---
Здоровье: 100%
Сидеров: 16 Личеров: 5
Скорость раздачи: 0 байт/сек Скорость скачивания: 0 байт/сек
Последний сидер: 23 дня 6 часов 42 минуты 46 секунд назад Последний личер: 23 дня 6 часов 42 минуты 46 секунд назад
Для скачивания торрента необходимо зарегистрироваться или войти на трекер.
Показать сообщения за:  Поле сортировки  
Начать новую тему Ответить на тему  [ 1 сообщение ] 

Часовой пояс: UTC + 3 часа


Кто сейчас на конференции

Сейчас этот форум просматривают: нет зарегистрированных пользователей и гости: 10


Вы не можете начинать темы
Вы не можете отвечать на сообщения
Вы не можете редактировать свои сообщения
Вы не можете удалять свои сообщения
Вы не можете добавлять вложения

Найти:
Перейти:  
Переместиться наверх
 Главная |  Список форумов |   Time : 0.092s | 15 Queries | GZIP : Off |
tracker_cron